找回密码

蓝光电影网

查看: 100|回复: 0

[纪录] 帕·乔和狮子 Paa.Joe.and.the.Lion.2016.1080p.AMZN.WEBRip.DDP2.0.x264-AJP69 4.75GB

[复制链接]
蓝光币
382
发表于 2020-1-20 15:18:27 | 显示全部楼层 |阅读模式
帕·乔和狮子 Paa.Joe.and.the.Lion.2016.1080p.AMZN.WEBRip.DDP2.0.x264-AJP69 4.75GB-1.png

译  名 帕·乔和狮子
片  名 Paa Joe & The Lion
年  代 2016
产  地 英国 / 加纳
类  别 记载片
语  言 英语
上映日期 2016-06-13
IMDb评分  7.1/10 from 16 users
IMDb链接  https://www.imdb.com/title/tt5815818
豆瓣评分 0/10 from 0 users
豆瓣链接 https://movie.douban.com/subject/27028957/
片  长 74分钟
导  演 Benjamin Wigley
主  演 Joseph Ashong
       Jacob Tetteh-Ashong


标  签 紀錄片 | Documentary | Art | 2016 | 2010s

简  介  

  Paa Joe dreams of his bygone days - bringing money home in briefcases and work being shipped to galleries the world over. Now, he sleeps as the cars hurtle passed. There are no customers, no tourists - there are no coffins to make. His son, Jacob, dreams too, he dreams of returning his father to his glory days and rebuilding the family legacy together. Over the next four years they stand side-by-side, conquering love and death and embracing a life changing opportunity to travel to the UK to undertake an artist residency. It is the start of their future together: father and son, master and apprentice...Paa Joe and The Lion.
  1. Video
  2. ID                                       : 1
  3. Format                                   : AVC
  4. Format/Info                              : Advanced Video Codec
  5. Format profile                           : [email protected]
  6. Format settings                          : CABAC / 4 Ref Frames
  7. Format settings, CABAC                   : Yes
  8. Format settings, Reference frames        : 4 frames
  9. Codec ID                                 : V_MPEG4/ISO/AVC
  10. Duration                                 : 1 h 9 min
  11. Bit rate mode                            : Variable
  12. Bit rate                                 : 9 513 kb/s
  13. Maximum bit rate                         : 15.0 Mb/s
  14. Width                                    : 1 920 pixels
  15. Height                                   : 1 080 pixels
  16. Display aspect ratio                     : 16:9
  17. Frame rate mode                          : Constant
  18. Frame rate                               : 25.000 FPS
  19. Color space                              : YUV
  20. Chroma subsampling                       : 4:2:0
  21. Bit depth                                : 8 bits
  22. Scan type                                : Progressive
  23. Bits/(Pixel*Frame)                       : 0.184
  24. Stream size                              : 4.64 GiB (98%)
  25. Default                                  : Yes
  26. Forced                                   : No
  27. Color range                              : Limited
  28. Color primaries                          : BT.709
  29. Transfer characteristics                 : BT.709
  30. Matrix coefficients                      : BT.709

  31. Audio
  32. ID                                       : 2
  33. Format                                   : E-AC-3
  34. Format/Info                              : Enhanced AC-3
  35. Commercial name                          : Dolby Digital Plus
  36. Codec ID                                 : A_EAC3
  37. Duration                                 : 1 h 9 min
  38. Bit rate mode                            : Constant
  39. Bit rate                                 : 224 kb/s
  40. Channel(s)                               : 2 channels
  41. Channel layout                           : L R
  42. Sampling rate                            : 48.0 kHz
  43. Frame rate                               : 31.250 FPS (1536 SPF)
  44. Compression mode                         : Lossy
  45. Stream size                              : 112 MiB (2%)
  46. Language                                 : English
  47. Service kind                             : Complete Main
  48. Default                                  : Yes
  49. Forced                                   : No

  50. Text
  51. ID                                       : 3
  52. Format                                   : UTF-8
  53. Codec ID                                 : S_TEXT/UTF8
  54. Codec ID/Info                            : UTF-8 Plain Text
  55. Duration                                 : 1 h 6 min
  56. Bit rate                                 : 66 b/s
  57. Count of elements                        : 830
  58. Stream size                              : 32.5 KiB (0%)
  59. Title                                    : SDH
  60. Language                                 : English
  61. Default                                  : No
  62. Forced                                   : No
复制代码

帕·乔和狮子 Paa.Joe.and.the.Lion.2016.1080p.AMZN.WEBRip.DDP2.0.x264-AJP69 4.75GB-2.png 帕·乔和狮子 Paa.Joe.and.the.Lion.2016.1080p.AMZN.WEBRip.DDP2.0.x264-AJP69 4.75GB-3.png 帕·乔和狮子 Paa.Joe.and.the.Lion.2016.1080p.AMZN.WEBRip.DDP2.0.x264-AJP69 4.75GB-4.png






回复

使用道具 举报

懒得打字嘛,点击右侧快捷回复 【右侧内容,后台自定义】
您需要登录后才可以回帖 登录 | 立即加入

本版积分规则

Archiver|小黑屋| 蓝光电影网 |网站地图

Copyright © 2021 Comsenz Inc. Powered by 蓝光电影网

蓝光电影网

本站内容由用户自主分享和转载自互联网,转载目的在于传递更多信息,并不代表本网赞同其观点和对其真实性负责。

如有侵权、违反国家法律政策行为,请联系我们,我们会第一时间及时清除和处理!

举报反馈邮箱:[email protected]

快速回复 返回顶部 返回列表