找回密码

蓝光电影网

查看: 81|回复: 0

[剧情] 玛格丽塔 Margarita.2012.1080p.AMZN.WEBRip.DDP2.0.x264-TEPES 6.08GB

[复制链接]
蓝光币
426
发表于 2020-1-20 23:22:17 | 显示全部楼层 |阅读模式
玛格丽塔 Margarita.2012.1080p.AMZN.WEBRip.DDP2.0.x264-TEPES 6.08GB-1.png

译  名 玛格丽塔
片  名 Margarita
年  代 2012
产  地 加拿大
类  别 剧情 / 笑剧
语  言 英语
上映日期 2012-04-01(法国)
IMDb评分  6.3/10 from 353 users
IMDb链接  https://www.imdb.com/title/tt2318601
豆瓣评分 6.8/10 from 85 users
豆瓣链接 https://movie.douban.com/subject/20440433/
导  演 Dominique Cardona / Laurie Colbert
编  剧 Dominique Cardona / Laurie Colbert
主  演 Nicola Correia Damude
       Patrick McKenna
       Christine Horne


标  签 加拿大 | 2012 | 加拿大电影 | Les | 笑剧 | LGBT | 温情 | 同性

简  介  

  墨西哥籍的 Margarita 是位超级褓母,顾问僱主一家大巨细小事;除了整理家务、会计作帐、水电维修样样来,关切与支出更是没少过。儘管有位能干帅气的工人 Carlos 喜好她,但 Margarita 相恋的工具却是惧怕许诺的法令系门生 Jane。谁知僱主佳耦家堕入经济窘境,忽然解僱 Margarita,让她因不法移民身份而面临观察与返国的逆境,而私心想把这位超级褓母留在身旁帮手的僱主则又起头想尽法子留住她。本片在温馨诙谐中,同时显现出不法移工与女同道身份所面临的残暴现实,并赢很多伦多同道影展观众票选最好剧情片
  1. Video
  2. ID                                       : 1
  3. Format                                   : AVC
  4. Format/Info                              : Advanced Video Codec
  5. Format profile                           : [email protected]
  6. Format settings                          : CABAC / 4 Ref Frames
  7. Format settings, CABAC                   : Yes
  8. Format settings, Reference frames        : 4 frames
  9. Codec ID                                 : V_MPEG4/ISO/AVC
  10. Duration                                 : 1 h 30 min
  11. Bit rate mode                            : Constant
  12. Bit rate                                 : 9 390 kb/s
  13. Nominal bit rate                         : 10 000 kb/s
  14. Width                                    : 1 920 pixels
  15. Height                                   : 816 pixels
  16. Display aspect ratio                     : 2.35:1
  17. Frame rate mode                          : Constant
  18. Frame rate                               : 23.976 (24000/1001) FPS
  19. Color space                              : YUV
  20. Chroma subsampling                       : 4:2:0
  21. Bit depth                                : 8 bits
  22. Scan type                                : Progressive
  23. Bits/(Pixel*Frame)                       : 0.250
  24. Stream size                              : 5.93 GiB (98%)
  25. Default                                  : Yes
  26. Forced                                   : No
  27. Color range                              : Limited
  28. Color primaries                          : BT.709
  29. Transfer characteristics                 : BT.709
  30. Matrix coefficients                      : BT.709

  31. Audio
  32. ID                                       : 2
  33. Format                                   : E-AC-3
  34. Format/Info                              : Enhanced AC-3
  35. Commercial name                          : Dolby Digital Plus
  36. Codec ID                                 : A_EAC3
  37. Duration                                 : 1 h 30 min
  38. Bit rate mode                            : Constant
  39. Bit rate                                 : 224 kb/s
  40. Channel(s)                               : 2 channels
  41. Channel layout                           : L R
  42. Sampling rate                            : 48.0 kHz
  43. Frame rate                               : 31.250 FPS (1536 SPF)
  44. Compression mode                         : Lossy
  45. Stream size                              : 145 MiB (2%)
  46. Language                                 : English
  47. Service kind                             : Complete Main
  48. Default                                  : Yes
  49. Forced                                   : No
复制代码

玛格丽塔 Margarita.2012.1080p.AMZN.WEBRip.DDP2.0.x264-TEPES 6.08GB-2.png 玛格丽塔 Margarita.2012.1080p.AMZN.WEBRip.DDP2.0.x264-TEPES 6.08GB-3.png 玛格丽塔 Margarita.2012.1080p.AMZN.WEBRip.DDP2.0.x264-TEPES 6.08GB-4.png






回复

使用道具 举报

懒得打字嘛,点击右侧快捷回复 【右侧内容,后台自定义】
您需要登录后才可以回帖 登录 | 立即加入

本版积分规则

Archiver|小黑屋| 蓝光电影网 |网站地图

Copyright © 2021 Comsenz Inc. Powered by 蓝光电影网

蓝光电影网

本站内容由用户自主分享和转载自互联网,转载目的在于传递更多信息,并不代表本网赞同其观点和对其真实性负责。

如有侵权、违反国家法律政策行为,请联系我们,我们会第一时间及时清除和处理!

举报反馈邮箱:[email protected]

快速回复 返回顶部 返回列表