找回密码

蓝光电影网

查看: 86|回复: 0

[恐怖] 枕边凶灵 Sleeping.With.The.Dead.2002.CHINESE.1080p.WEB-DL.AAC2.0.H264-MooMa 3.29GB

[复制链接]
蓝光币
386
发表于 2020-1-20 23:24:02 | 显示全部楼层 |阅读模式
枕边凶灵 Sleeping.With.The.Dead.2002.CHINESE.1080p.WEB-DL.AAC2.0.H264-MooMa 3.29GB-1.png

译  名 sleeping with the dead
片  名 枕边凶灵
年  代 2002
产  地 中国香港
类  别 可骇
语  言 粤语
上映日期 2002-04-07
IMDb评分  5.9/10 from 68 users
IMDb链接  https://www.imdb.com/title/tt0351761
豆瓣评分 5.8/10 from 1481 users
豆瓣链接 https://movie.douban.com/subject/1302162/
片  长 88分钟
导  演 郑伟文 Wai-Man Cheng
编  剧 雷宇扬 Simon Lui / 郑伟文 Wai-Man Cheng / 李思臻 / 刘上言
主  演 陈小春 Jordan Chan
       林熙蕾 Kelly Lin
       陈敏之 Man Chi Chan
       雷宇扬 Simon Lui
       张达明
       黄贯中
       李炜尚 David Lee Wai-Sheung
       江美仪


标  签 可骇 | 香港 | 陈小春 | 香港电影 | 林熙蕾 | 惊悚 | 2002 | 可骇片

简  介  

  David(陈小春 饰)是某私人医院的医生,表面平淡的他却有着与众分歧之处。因童年的一段古怪履历,他获得了可以看见鬼魂的阴阳眼。
  生活还算富足的David却并未感应欢畅幸运,成婚刚刚一年的妻子(陈敏芝 饰)不安于室,令David大为沮丧,他只得与好友辉仔留连酒肆,靠杯中物排解忧愁。某夜,David结识性感奥秘女子Cindy(林熙蕾 饰),二人干柴猛火,一拍即合。
  未几,两名男人古怪坠楼身亡,身上更有强酸破过的痕迹。负责观察此案的张Sir(雷宇扬 饰)发现,两死者竟和他及David是童年的玩伴。一桩被决心忘记多年的惨案渐渐浮出水面……
  1. Video
  2. ID                                       : 1
  3. Format                                   : AVC
  4. Format/Info                              : Advanced Video Codec
  5. Format profile                           : [email protected]
  6. Format settings                          : CABAC / 4 Ref Frames
  7. Format settings, CABAC                   : Yes
  8. Format settings, Reference frames        : 4 frames
  9. Codec ID                                 : V_MPEG4/ISO/AVC
  10. Duration                                 : 1 h 27 min
  11. Bit rate                                 : 5 269 kb/s
  12. Width                                    : 1 920 pixels
  13. Height                                   : 1 080 pixels
  14. Display aspect ratio                     : 16:9
  15. Frame rate mode                          : Constant
  16. Frame rate                               : 24.000 FPS
  17. Color space                              : YUV
  18. Chroma subsampling                       : 4:2:0
  19. Bit depth                                : 8 bits
  20. Scan type                                : Progressive
  21. Bits/(Pixel*Frame)                       : 0.106
  22. Stream size                              : 3.22 GiB (98%)
  23. Language                                 : English
  24. Default                                  : Yes
  25. Forced                                   : No
  26. Color range                              : Limited
  27. Color primaries                          : BT.709
  28. Transfer characteristics                 : BT.709
  29. Matrix coefficients                      : BT.709

  30. Audio
  31. ID                                       : 2
  32. Format                                   : AAC LC
  33. Format/Info                              : Advanced Audio Codec Low Complexity
  34. Codec ID                                 : A_AAC-2
  35. Duration                                 : 1 h 27 min
  36. Bit rate                                 : 113 kb/s
  37. Channel(s)                               : 2 channels
  38. Channel layout                           : L R
  39. Sampling rate                            : 48.0 kHz
  40. Frame rate                               : 46.875 FPS (1024 SPF)
  41. Compression mode                         : Lossy
  42. Stream size                              : 70.9 MiB (2%)
  43. Language                                 : Chinese
  44. Default                                  : Yes
  45. Forced                                   : No

  46. Text
  47. ID                                       : 3
  48. Format                                   : UTF-8
  49. Codec ID                                 : S_TEXT/UTF8
  50. Codec ID/Info                            : UTF-8 Plain Text
  51. Duration                                 : 1 h 23 min
  52. Bit rate                                 : 38 b/s
  53. Count of elements                        : 930
  54. Stream size                              : 23.3 KiB (0%)
  55. Language                                 : English
  56. Default                                  : Yes
  57. Forced                                   : No
复制代码

枕边凶灵 Sleeping.With.The.Dead.2002.CHINESE.1080p.WEB-DL.AAC2.0.H264-MooMa 3.29GB-2.png 枕边凶灵 Sleeping.With.The.Dead.2002.CHINESE.1080p.WEB-DL.AAC2.0.H264-MooMa 3.29GB-3.png 232312zig77i7wpgmwgnzf.png






回复

使用道具 举报

懒得打字嘛,点击右侧快捷回复 【右侧内容,后台自定义】
您需要登录后才可以回帖 登录 | 立即加入

本版积分规则

Archiver|小黑屋| 蓝光电影网 |网站地图

Copyright © 2021 Comsenz Inc. Powered by 蓝光电影网

蓝光电影网

本站内容由用户自主分享和转载自互联网,转载目的在于传递更多信息,并不代表本网赞同其观点和对其真实性负责。

如有侵权、违反国家法律政策行为,请联系我们,我们会第一时间及时清除和处理!

举报反馈邮箱:[email protected]

快速回复 返回顶部 返回列表