找回密码

蓝光电影网

查看: 293|回复: 0

[纪录] 恐慌:2008金融危机背后不为人知的故事 Panic.The.Untold.Story.of.The.2008.Financial.Crisis.2018.1080p.AMZN.WEBRip.DDP2.0.x264-TeeHee 5.29GB

[复制链接]
蓝光币
382
发表于 2020-1-20 23:29:36 | 显示全部楼层 |阅读模式
发急:2008金融危机背后不为人知的故事 Panic.The.Untold.Story.of.The.2008.Financial.Crisis.2018.1080p.AMZN.WEBRip.DDP2.0.x264-TeeHee 5.29GB-1.png

译  名 发急:2008金融危机背后不为人知的故事 / VICE Special Report:The Untold Story of the 2008 Financial Crisis / 恶之出格报告:2008年经济危机以后
片  名 Panic: The Untold Story of the 2008 Financial Crisis
年  代 2018
产  地 美国
语  言 英语
上映日期 2018-12-11(美国)
IMDb评分  7.4/10 from 416 users
IMDb链接  https://www.imdb.com/title/tt9419838
豆瓣评分 8.3/10 from 90 users
豆瓣链接 https://movie.douban.com/subject/30404769/
片  长 96分钟
导  演 John Maggio
主  演 Ben Bernanke
       Chris Dodd
       Barney Frank
       Timothy Geithner
       Henry Paulson


标  签 记载片 | 经济 | 金融 | 美国 | HBO | ECONOMICS | Documentary | 2018

简  介  

  2008年经济危机以后,时任财政部长保尔森、纽约联邦储备银行主席蒂莫西·盖特纳和美联储主席本·伯南克试图将这个国家从很多人以为的能够比大冷落还要严重的经济冷落中解救出来。这部长篇记载片探讨了致使危机的各类身分,以及这三位关键人物若何把分歧严重的国会团结起来,商讨7千亿美圆题目资产救济计划(TARP)。终极,经济反弹,经济冷落得以避免。但也有庞大的经济和政治标钱:美国总统奥巴马继续了挥之不去的冷落阴影,经济衰退随之而来,被银行救济和银里手的奖金所激愤的纳税人们催生了占据华尔街活动和茶党活动。十年曩昔了,在这个国家比以往任何时辰都加倍割裂的情况下,这篇出格报道问道:假现在天经济危机再次发生,国会会不会结合起来寻觅处理计划?
  1. Video
  2. ID                                       : 1
  3. Format                                   : AVC
  4. Format/Info                              : Advanced Video Codec
  5. Format profile                           : [email protected]
  6. Format settings                          : CABAC / 4 Ref Frames
  7. Format settings, CABAC                   : Yes
  8. Format settings, Reference frames        : 4 frames
  9. Codec ID                                 : V_MPEG4/ISO/AVC
  10. Duration                                 : 1 h 36 min
  11. Bit rate mode                            : Constant
  12. Bit rate                                 : 7 651 kb/s
  13. Nominal bit rate                         : 10 000 kb/s
  14. Width                                    : 1 920 pixels
  15. Height                                   : 1 080 pixels
  16. Display aspect ratio                     : 16:9
  17. Frame rate mode                          : Constant
  18. Frame rate                               : 23.976 (24000/1001) FPS
  19. Color space                              : YUV
  20. Chroma subsampling                       : 4:2:0
  21. Bit depth                                : 8 bits
  22. Scan type                                : Progressive
  23. Bits/(Pixel*Frame)                       : 0.154
  24. Stream size                              : 5.14 GiB (97%)
  25. Default                                  : Yes
  26. Forced                                   : No
  27. Color range                              : Limited
  28. Color primaries                          : BT.709
  29. Transfer characteristics                 : BT.709
  30. Matrix coefficients                      : BT.709

  31. Audio
  32. ID                                       : 2
  33. Format                                   : E-AC-3
  34. Format/Info                              : Enhanced AC-3
  35. Commercial name                          : Dolby Digital Plus
  36. Codec ID                                 : A_EAC3
  37. Duration                                 : 1 h 36 min
  38. Bit rate mode                            : Constant
  39. Bit rate                                 : 224 kb/s
  40. Channel(s)                               : 2 channels
  41. Channel layout                           : L R
  42. Sampling rate                            : 48.0 kHz
  43. Frame rate                               : 31.250 FPS (1536 SPF)
  44. Compression mode                         : Lossy
  45. Stream size                              : 154 MiB (3%)
  46. Language                                 : English
  47. Service kind                             : Complete Main
  48. Default                                  : Yes
  49. Forced                                   : No

  50. Text
  51. ID                                       : 3
  52. Format                                   : UTF-8
  53. Codec ID                                 : S_TEXT/UTF8
  54. Codec ID/Info                            : UTF-8 Plain Text
  55. Duration                                 : 1 h 35 min
  56. Bit rate                                 : 122 b/s
  57. Count of elements                        : 2194
  58. Stream size                              : 85.3 KiB (0%)
  59. Title                                    : SDH
  60. Language                                 : English
  61. Default                                  : No
  62. Forced                                   : No
复制代码

发急:2008金融危机背后不为人知的故事 Panic.The.Untold.Story.of.The.2008.Financial.Crisis.2018.1080p.AMZN.WEBRip.DDP2.0.x264-TeeHee 5.29GB-2.png 232907ve6nfqannf6fmm8r.png 发急:2008金融危机背后不为人知的故事 Panic.The.Untold.Story.of.The.2008.Financial.Crisis.2018.1080p.AMZN.WEBRip.DDP2.0.x264-TeeHee 5.29GB-4.png






回复

使用道具 举报

懒得打字嘛,点击右侧快捷回复 【右侧内容,后台自定义】
您需要登录后才可以回帖 登录 | 立即加入

本版积分规则

Archiver|小黑屋| 蓝光电影网 |网站地图

Copyright © 2021 Comsenz Inc. Powered by 蓝光电影网

蓝光电影网

本站内容由用户自主分享和转载自互联网,转载目的在于传递更多信息,并不代表本网赞同其观点和对其真实性负责。

如有侵权、违反国家法律政策行为,请联系我们,我们会第一时间及时清除和处理!

举报反馈邮箱:[email protected]

快速回复 返回顶部 返回列表