找回密码

蓝光电影网

查看: 206|回复: 0

[恐怖] 阿蒂克 Artik.2019.1080p.AMZN.WEBRip.DDP5.1.x264-NTG 5.24GB

[复制链接]
蓝光币
382
发表于 2020-1-20 23:30:19 | 显示全部楼层 |阅读模式
阿蒂克 Artik.2019.1080p.AMZN.WEBRip.DDP5.1.x264-NTG 5.24GB-1.png

译  名 阿蒂克
片  名 Artik
年  代 2018
产  地 美国
类  别 可骇
语  言 英语
上映日期 2019-08-11(美国) / 2019-09-11(乌克兰)
IMDb评分  4.2/10 from 383 users
IMDb链接  https://www.imdb.com/title/tt7246106
豆瓣评分 0/10 from 0 users
豆瓣链接 https://movie.douban.com/subject/30257321/
片  长 78分钟
导  演 Tom Botchii Skowronski
编  剧 Tom Botchii Skowronski
主  演 蔡斯·威廉逊 Chase Williamson
       杰瑞·G·安格罗 Jerry G. Angelo
       劳伦·阿什利·卡特 Lauren Ashley Carter
       马修·默瑟 Matt Mercer
       Gavin White
       大卫·罗宾斯 David Robbins
       Kari White


标  签 美国电影 | 可骇 | 大烂片

简  介  

  A comic book obsessed serial killer teaches his son how to get away with a series of brutal murders until the boy befriends a mysterious man who threatens to expose the families horrifying secret.
  1. Video
  2. ID                                       : 1
  3. Format                                   : AVC
  4. Format/Info                              : Advanced Video Codec
  5. Format profile                           : [email protected]
  6. Format settings                          : CABAC / 4 Ref Frames
  7. Format settings, CABAC                   : Yes
  8. Format settings, Reference frames        : 4 frames
  9. Codec ID                                 : V_MPEG4/ISO/AVC
  10. Duration                                 : 1 h 17 min
  11. Bit rate mode                            : Constant
  12. Bit rate                                 : 9 030 kb/s
  13. Nominal bit rate                         : 10 000 kb/s
  14. Width                                    : 1 920 pixels
  15. Height                                   : 872 pixels
  16. Display aspect ratio                     : 2.2:1
  17. Original display aspect ratio            : 2.2:1
  18. Frame rate mode                          : Constant
  19. Frame rate                               : 23.976 (24000/1001) FPS
  20. Color space                              : YUV
  21. Chroma subsampling                       : 4:2:0
  22. Bit depth                                : 8 bits
  23. Scan type                                : Progressive
  24. Bits/(Pixel*Frame)                       : 0.225
  25. Stream size                              : 4.89 GiB (93%)
  26. Default                                  : Yes
  27. Forced                                   : No
  28. Color range                              : Limited
  29. Color primaries                          : BT.709
  30. Transfer characteristics                 : BT.709
  31. Matrix coefficients                      : BT.709

  32. Audio
  33. ID                                       : 2
  34. Format                                   : E-AC-3
  35. Format/Info                              : Enhanced AC-3
  36. Commercial name                          : Dolby Digital Plus
  37. Codec ID                                 : A_EAC3
  38. Duration                                 : 1 h 17 min
  39. Bit rate mode                            : Constant
  40. Bit rate                                 : 640 kb/s
  41. Channel(s)                               : 6 channels
  42. Channel layout                           : L R C LFE Ls Rs
  43. Sampling rate                            : 48.0 kHz
  44. Frame rate                               : 31.250 FPS (1536 SPF)
  45. Compression mode                         : Lossy
  46. Stream size                              : 355 MiB (7%)
  47. Language                                 : English
  48. Service kind                             : Complete Main
  49. Default                                  : Yes
  50. Forced                                   : No

  51. Text #1
  52. ID                                       : 3
  53. Format                                   : UTF-8
  54. Codec ID                                 : S_TEXT/UTF8
  55. Codec ID/Info                            : UTF-8 Plain Text
  56. Duration                                 : 1 h 9 min
  57. Bit rate                                 : 40 b/s
  58. Count of elements                        : 710
  59. Stream size                              : 20.6 KiB (0%)
  60. Language                                 : English
  61. Default                                  : No
  62. Forced                                   : No

  63. Text #2
  64. ID                                       : 4
  65. Format                                   : UTF-8
  66. Codec ID                                 : S_TEXT/UTF8
  67. Codec ID/Info                            : UTF-8 Plain Text
  68. Duration                                 : 1 h 17 min
  69. Bit rate                                 : 39 b/s
  70. Count of elements                        : 830
  71. Stream size                              : 22.3 KiB (0%)
  72. Title                                    : SDH
  73. Language                                 : English
  74. Default                                  : No
  75. Forced                                   : No
复制代码

阿蒂克 Artik.2019.1080p.AMZN.WEBRip.DDP5.1.x264-NTG 5.24GB-2.png 阿蒂克 Artik.2019.1080p.AMZN.WEBRip.DDP5.1.x264-NTG 5.24GB-3.png 阿蒂克 Artik.2019.1080p.AMZN.WEBRip.DDP5.1.x264-NTG 5.24GB-4.png






回复

使用道具 举报

懒得打字嘛,点击右侧快捷回复 【右侧内容,后台自定义】
您需要登录后才可以回帖 登录 | 立即加入

本版积分规则

Archiver|小黑屋| 蓝光电影网 |网站地图

Copyright © 2021 Comsenz Inc. Powered by 蓝光电影网

蓝光电影网

本站内容由用户自主分享和转载自互联网,转载目的在于传递更多信息,并不代表本网赞同其观点和对其真实性负责。

如有侵权、违反国家法律政策行为,请联系我们,我们会第一时间及时清除和处理!

举报反馈邮箱:[email protected]

快速回复 返回顶部 返回列表