找回密码

蓝光电影网

查看: 75|回复: 0

[纪录] 菲林卫士:P·K·奈尔 Celluloid.Man.2012.1080p.AMZN.WEBRip.DDP2.0.x264-TEPES 10.82GB

[复制链接]
蓝光币
382
发表于 2020-1-20 23:34:37 | 显示全部楼层 |阅读模式
胶卷卫士:P·K·奈尔 Celluloid.Man.2012.1080p.AMZN.WEBRip.DDP2.0.x264-TEPES 10.82GB-1.png

译  名 胶卷卫士:P·K·奈尔
片  名 Celluloid Man
年  代 2012
产  地 印度
类  别 记载片
语  言 英语 / 印地语 / 孟加拉语 / 卡纳达语
IMDb评分  7.8/10 from 114 users
IMDb链接  https://www.imdb.com/title/tt2190196
豆瓣评分 0/10 from 0 users
豆瓣链接 https://movie.douban.com/subject/11612474/
片  长 164分钟
导  演 Shivendra Singh Dungarpur
主  演 P.K.奈尔 P.K. Nair
       克里日托夫·扎努西 Krzysztof Zanussi
       莱斯特·詹姆斯·派里斯 Lester James Peries
       Vidhu Vinod Chopra


标  签 印度 | 记载片 | Documentary | 紀錄片 | SIFF | 印度电影 | 2013 | siff2013

简  介  

  电影如蝴蝶,标致而短寿。千机万变捉住美好固已难能宝贵,留住永久之美,庶几无憾。印度天气潮热,多亏人称「奈尔师长」的印度电影保育之父,无数接近损毁边沿的珍贵作品,得以保存修复。由门票收藏家变身胶卷卫士,不避跋涉直入穷乡拯救烟没的电影,奈尔走过的路可有十万八千里?看着旧片重 温、各式建造公司商标的片头蒙太奇,印度电影史彷佛就在经他保存的影框之间无言揭露。遑论波兰大师赞禄西、斯里兰卡国宝培里斯等如虎添翼的访谈,直构一场知性大丰收。
  Henri Langlois, the French film preservation pioneer, had it easy compared to P. K. Nair. Nair, the founder of the National Film Archive of India, has been instrumental in salvaging his country's cinematic heritage, from early silent films to regional cinema to even popular Hindi movies. He has also been a teacher to a host of filmmakers, including this documentary's director. Heartfelt and illuminating, this is a celebration of cinema and a man who spends his life safeguarding film for future generations.
  1. Video
  2. ID                                       : 1
  3. Format                                   : AVC
  4. Format/Info                              : Advanced Video Codec
  5. Format profile                           : [email protected]
  6. Format settings                          : CABAC / 4 Ref Frames
  7. Format settings, CABAC                   : Yes
  8. Format settings, Reference frames        : 4 frames
  9. Codec ID                                 : V_MPEG4/ISO/AVC
  10. Duration                                 : 2 h 36 min
  11. Bit rate mode                            : Constant
  12. Bit rate                                 : 10 000 kb/s
  13. Width                                    : 1 920 pixels
  14. Height                                   : 1 040 pixels
  15. Display aspect ratio                     : 1.85:1
  16. Frame rate mode                          : Constant
  17. Frame rate                               : 24.000 FPS
  18. Color space                              : YUV
  19. Chroma subsampling                       : 4:2:0
  20. Bit depth                                : 8 bits
  21. Scan type                                : Progressive
  22. Bits/(Pixel*Frame)                       : 0.209
  23. Stream size                              : 10.6 GiB (98%)
  24. Default                                  : Yes
  25. Forced                                   : No
  26. Color range                              : Limited
  27. Color primaries                          : BT.709
  28. Transfer characteristics                 : BT.709
  29. Matrix coefficients                      : BT.709

  30. Audio
  31. ID                                       : 2
  32. Format                                   : E-AC-3
  33. Format/Info                              : Enhanced AC-3
  34. Commercial name                          : Dolby Digital Plus
  35. Codec ID                                 : A_EAC3
  36. Duration                                 : 2 h 36 min
  37. Bit rate mode                            : Constant
  38. Bit rate                                 : 224 kb/s
  39. Channel(s)                               : 2 channels
  40. Channel layout                           : L R
  41. Sampling rate                            : 48.0 kHz
  42. Frame rate                               : 31.250 FPS (1536 SPF)
  43. Compression mode                         : Lossy
  44. Stream size                              : 251 MiB (2%)
  45. Language                                 : English
  46. Service kind                             : Complete Main
  47. Default                                  : Yes
  48. Forced                                   : No
复制代码

胶卷卫士:P·K·奈尔 Celluloid.Man.2012.1080p.AMZN.WEBRip.DDP2.0.x264-TEPES 10.82GB-2.png 胶卷卫士:P·K·奈尔 Celluloid.Man.2012.1080p.AMZN.WEBRip.DDP2.0.x264-TEPES 10.82GB-3.png 胶卷卫士:P·K·奈尔 Celluloid.Man.2012.1080p.AMZN.WEBRip.DDP2.0.x264-TEPES 10.82GB-4.png






回复

使用道具 举报

懒得打字嘛,点击右侧快捷回复 【右侧内容,后台自定义】
您需要登录后才可以回帖 登录 | 立即加入

本版积分规则

Archiver|小黑屋| 蓝光电影网 |网站地图

Copyright © 2021 Comsenz Inc. Powered by 蓝光电影网

蓝光电影网

本站内容由用户自主分享和转载自互联网,转载目的在于传递更多信息,并不代表本网赞同其观点和对其真实性负责。

如有侵权、违反国家法律政策行为,请联系我们,我们会第一时间及时清除和处理!

举报反馈邮箱:[email protected]

快速回复 返回顶部 返回列表