找回密码

蓝光电影网

查看: 155|回复: 0

[纪录] 谁还会来爱我/谁来爱我? Whos.Gonna.Love.Me.Now.2016.1080p.AMZN.WEBRip.DDP2.0.x264-TEPES 5.88GB

[复制链接]
蓝光币
426
发表于 2020-1-20 23:36:25 | 显示全部楼层 |阅读模式
233541svlumemw93vudbgq.png

译  名 谁还会来爱我 / 谁来爱我?(港)
片  名 Who's Gonna Love Me Now?
年  代 2016
产  地 以色列 / 英国
类  别 记载片 / 同性
语  言 希伯来语 / 英语
上映日期 2016-02-13(柏林电影节)
IMDb评分  7.2/10 from 264 users
IMDb链接  https://www.imdb.com/title/tt5486818
豆瓣评分 0/10 from 0 users
豆瓣链接 https://movie.douban.com/subject/26724132/
片  长 85分钟
导  演 Barak Heymann / 托默贺曼 Tomer Heymann

标  签 记载片 | 以色列 | 柏林电影节 | 紀錄片 | 电影 | 恋爱 | 托默·贺曼 | 同性

简  介  

  Saar has never fulfilled his parents’ expectations. Ever since he defied the rules of his kibbutz and was barred from the settlement community seventeen years ago, as far as his family is concerned, he simply does not exist. He left Israel to live freely as a gay man in London. When a three-year relationship ended, he threw himself into an excess of sex and drugs until he was diagnosed with HIV and was forced to rethink his life. He has finally found a home singing in the London Gay Men’s Chorus where music is giving him the courage for a reunion with his family.
  This film provides a sensitive, humorous and charming record of how the now forty-year-old protagonist and his estranged parents and siblings set off to confront their disagreements and fears. Unexpected warmth and deep rejection become equally challenging. Incidentally, Saar’s intensely personal story also illuminates the fascinating diversity of a communal way of life that is pervaded by culture and religion; he also inspires us with the sincerity of his search for his identity. The film’s numerous energetic and emotional choral scenes lend passionate expression to his message. berlinale 2016

获奖情况  

  第66届柏林国际电影节(2016)
  泰迪熊奖 最好记载片(提名) 托默·贺曼
  1. Video
  2. ID                                       : 1
  3. Format                                   : AVC
  4. Format/Info                              : Advanced Video Codec
  5. Format profile                           : [email protected]
  6. Format settings                          : CABAC / 4 Ref Frames
  7. Format settings, CABAC                   : Yes
  8. Format settings, Reference frames        : 4 frames
  9. Codec ID                                 : V_MPEG4/ISO/AVC
  10. Duration                                 : 1 h 26 min
  11. Bit rate mode                            : Constant
  12. Bit rate                                 : 10 000 kb/s
  13. Width                                    : 1 920 pixels
  14. Height                                   : 1 080 pixels
  15. Display aspect ratio                     : 16:9
  16. Frame rate mode                          : Constant
  17. Frame rate                               : 25.000 FPS
  18. Color space                              : YUV
  19. Chroma subsampling                       : 4:2:0
  20. Bit depth                                : 8 bits
  21. Scan type                                : Progressive
  22. Bits/(Pixel*Frame)                       : 0.193
  23. Stream size                              : 5.74 GiB (98%)
  24. Default                                  : Yes
  25. Forced                                   : No
  26. Color range                              : Limited
  27. Color primaries                          : BT.709
  28. Transfer characteristics                 : BT.709
  29. Matrix coefficients                      : BT.709

  30. Audio
  31. ID                                       : 2
  32. Format                                   : E-AC-3
  33. Format/Info                              : Enhanced AC-3
  34. Commercial name                          : Dolby Digital Plus
  35. Codec ID                                 : A_EAC3
  36. Duration                                 : 1 h 26 min
  37. Bit rate mode                            : Constant
  38. Bit rate                                 : 224 kb/s
  39. Channel(s)                               : 2 channels
  40. Channel layout                           : L R
  41. Sampling rate                            : 48.0 kHz
  42. Frame rate                               : 31.250 FPS (1536 SPF)
  43. Compression mode                         : Lossy
  44. Stream size                              : 138 MiB (2%)
  45. Language                                 : English
  46. Service kind                             : Complete Main
  47. Default                                  : Yes
  48. Forced                                   : No

  49. Text
  50. ID                                       : 3
  51. Format                                   : UTF-8
  52. Codec ID                                 : S_TEXT/UTF8
  53. Codec ID/Info                            : UTF-8 Plain Text
  54. Duration                                 : 1 h 22 min
  55. Bit rate                                 : 60 b/s
  56. Count of elements                        : 1039
  57. Stream size                              : 36.8 KiB (0%)
  58. Title                                    : SDH
  59. Language                                 : English
  60. Default                                  : No
  61. Forced                                   : No
复制代码

谁还会来爱我/谁来爱我? Whos.Gonna.Love.Me.Now.2016.1080p.AMZN.WEBRip.DDP2.0.x264-TEPES 5.88GB-2.png 谁还会来爱我/谁来爱我? Whos.Gonna.Love.Me.Now.2016.1080p.AMZN.WEBRip.DDP2.0.x264-TEPES 5.88GB-3.png 谁还会来爱我/谁来爱我? Whos.Gonna.Love.Me.Now.2016.1080p.AMZN.WEBRip.DDP2.0.x264-TEPES 5.88GB-4.png






回复

使用道具 举报

懒得打字嘛,点击右侧快捷回复 【右侧内容,后台自定义】
您需要登录后才可以回帖 登录 | 立即加入

本版积分规则

Archiver|小黑屋| 蓝光电影网 |网站地图

Copyright © 2021 Comsenz Inc. Powered by 蓝光电影网

蓝光电影网

本站内容由用户自主分享和转载自互联网,转载目的在于传递更多信息,并不代表本网赞同其观点和对其真实性负责。

如有侵权、违反国家法律政策行为,请联系我们,我们会第一时间及时清除和处理!

举报反馈邮箱:[email protected]

快速回复 返回顶部 返回列表