找回密码

蓝光电影网

查看: 275|回复: 0

[剧情] SM片场实录 Interior.Leather.Bar.2013.1080p.AMZN.WEBRip.DDP2.0.x264-TEPES 4.09GB

[复制链接]
蓝光币
382
发表于 2020-1-20 23:39:42 | 显示全部楼层 |阅读模式
233902bvygaggivibb8hiy.png

译  名 SM片场实录 / James Franco's 40 Minutes / James Franco's Crusing / 虎口再巡航 / 钓鱼(台)
片  名 Interior. Leather Bar.
年  代 2013
产  地 美国
类  别 剧情 / 同性
语  言 英语
上映日期 2013-01-10(圣丹斯电影节)
IMDb评分  5.1/10 from 2269 users
IMDb链接  https://www.imdb.com/title/tt2352488
豆瓣评分 4.0/10 from 347 users
豆瓣链接 https://movie.douban.com/subject/11638392/
片  长 58分钟
导  演 詹姆斯·弗兰科 James Franco / 特拉维斯·马修斯 Travis Mathews
编  剧 特拉维斯·马修斯 Travis Mathews
主  演 瓦尔·劳伦 Val Lauren
       Christian Patrick
       Brenden Gregory
       Brad Roberge
       Robbie Acklen
       Osbaldo Daniel Alvarez
       Andres Barcelo
       Samantha Barrows
       Nick Buda
       Seana Carroll
       詹姆斯·弗兰科 James Franco
       迈克尔·兰南 Michael Lannan
       特拉维斯·马修斯 Travis Mathews
       Matthew McKelligon
       乔尔·迈克利 Joel Michaely
       杰克·罗宾斯 Jake Robbins
       Lane Stewart


标  签 JamesFranco | 美国 | 同性 | 同道 | 情色 | Gay | 2013 | 电影

简  介  

  詹姆斯·弗兰科拍摄的这部最新“同道性爱艺术电影”,是为阿尔·帕西诺的1980年争议电影“虎口巡航”(Cruising)做修复重拍。奥斯卡导演威廉·弗莱德金昔时这部反应同道地下SM文化的电影由于题材惊世骇俗,被美国分级协会MPAA划入了X级片。为经过检查上映电影最初被迫删 掉了40分钟从而侥幸升级为R级片。但是删减严重影响了成片品格,金酸梅更将该片间接送上年度最烂电影黑名单。2010年弗莱德金筹算为“虎口巡航”30周年推出完整收藏版,但刊行方华纳兄弟发现删减部分的原始胶片已经找不到了!本片并非补拍原始剧情,而是复原昔时拍摄的现场,以片中片的形式从弗兰科的角度报告丢失的40分钟。QAF
  1. Video
  2. ID                                       : 1
  3. Format                                   : AVC
  4. Format/Info                              : Advanced Video Codec
  5. Format profile                           : [email protected]
  6. Format settings                          : CABAC / 4 Ref Frames
  7. Format settings, CABAC                   : Yes
  8. Format settings, Reference frames        : 4 frames
  9. Codec ID                                 : V_MPEG4/ISO/AVC
  10. Duration                                 : 1 h 0 min
  11. Bit rate mode                            : Constant
  12. Bit rate                                 : 9 502 kb/s
  13. Nominal bit rate                         : 10 000 kb/s
  14. Width                                    : 1 920 pixels
  15. Height                                   : 1 080 pixels
  16. Display aspect ratio                     : 16:9
  17. Frame rate mode                          : Constant
  18. Frame rate                               : 23.976 (24000/1001) FPS
  19. Color space                              : YUV
  20. Chroma subsampling                       : 4:2:0
  21. Bit depth                                : 8 bits
  22. Scan type                                : Progressive
  23. Bits/(Pixel*Frame)                       : 0.191
  24. Stream size                              : 4.00 GiB (98%)
  25. Default                                  : Yes
  26. Forced                                   : No
  27. Color range                              : Limited
  28. Color primaries                          : BT.709
  29. Transfer characteristics                 : BT.709
  30. Matrix coefficients                      : BT.709

  31. Audio
  32. ID                                       : 2
  33. Format                                   : E-AC-3
  34. Format/Info                              : Enhanced AC-3
  35. Commercial name                          : Dolby Digital Plus
  36. Codec ID                                 : A_EAC3
  37. Duration                                 : 1 h 0 min
  38. Bit rate mode                            : Constant
  39. Bit rate                                 : 224 kb/s
  40. Channel(s)                               : 2 channels
  41. Channel layout                           : L R
  42. Sampling rate                            : 48.0 kHz
  43. Frame rate                               : 31.250 FPS (1536 SPF)
  44. Compression mode                         : Lossy
  45. Stream size                              : 96.5 MiB (2%)
  46. Language                                 : English
  47. Service kind                             : Complete Main
  48. Default                                  : Yes
  49. Forced                                   : No
复制代码

SM片场实录 Interior.Leather.Bar.2013.1080p.AMZN.WEBRip.DDP2.0.x264-TEPES 4.09GB-2.png SM片场实录 Interior.Leather.Bar.2013.1080p.AMZN.WEBRip.DDP2.0.x264-TEPES 4.09GB-3.png SM片场实录 Interior.Leather.Bar.2013.1080p.AMZN.WEBRip.DDP2.0.x264-TEPES 4.09GB-4.png






回复

使用道具 举报

懒得打字嘛,点击右侧快捷回复 【右侧内容,后台自定义】
您需要登录后才可以回帖 登录 | 立即加入

本版积分规则

Archiver|小黑屋| 蓝光电影网 |网站地图

Copyright © 2021 Comsenz Inc. Powered by 蓝光电影网

蓝光电影网

本站内容由用户自主分享和转载自互联网,转载目的在于传递更多信息,并不代表本网赞同其观点和对其真实性负责。

如有侵权、违反国家法律政策行为,请联系我们,我们会第一时间及时清除和处理!

举报反馈邮箱:[email protected]

快速回复 返回顶部 返回列表