找回密码

蓝光电影网

查看: 106|回复: 0

[纪录] 石墙之前 Before.Stonewall.1984.1080p.AMZN.WEBRip.DDP2.0.x264-TEPES 6.03GB

[复制链接]
蓝光币
382
发表于 2020-1-20 23:41:04 | 显示全部楼层 |阅读模式
石墙之前 Before.Stonewall.1984.1080p.AMZN.WEBRip.DDP2.0.x264-TEPES 6.03GB-1.png

译  名 石墙之前
片  名 Before Stonewall
年  代 1985
产  地 美国
类  别 记载片 / 同性 / 历史
语  言 英语
上映日期 1984-09-15
IMDb评分  7.6/10 from 742 users
IMDb链接  https://www.imdb.com/title/tt0088782
豆瓣评分 0/10 from 0 users
豆瓣链接 https://movie.douban.com/subject/1974575/
导  演 John Scagliotti / Greta Schiller / Robert Rosenberg
主  演 Rita Mae Brown
       Anne Bannon
       Lisa Ben
       Gladys Bentley
       George Buse
       Carroll Davis


标  签 记载片 | LGBT | 同性 | 政治 | 历史 | 同道 | 人权 | 美国

简  介  

  In 1969, the police raided the Stonewall Inn, a gay bar in New York City's Greenwich Village - leading to three nights of rioting by the city's gay community. With this outpouring of courage and unity, the Gay Liberation Movement had begun.
  Before Stonewall pries open the closet door - setting free the dramatic story of the sometimes horrifying public and private existences experienced by gay and lesbian Americans since the 1920s. Revealing and often humorous, this widely acclaimed film relives the emotionally-charged sparking of today's gay rights movement - from the events that led to the fevered 1969 riots to many other milestones in the brave fight for acceptance.
  Experience the unforgettable, decade-by-decade history of homosexuality in America through eye-opening historical footage and amazing interviews with those who lived through an often brutal closeted history. You owe it to yourself to see Before Stonewall.
  1. Video
  2. ID                                       : 1
  3. Format                                   : AVC
  4. Format/Info                              : Advanced Video Codec
  5. Format profile                           : [email protected]
  6. Format settings                          : CABAC / 4 Ref Frames
  7. Format settings, CABAC                   : Yes
  8. Format settings, Reference frames        : 4 frames
  9. Codec ID                                 : V_MPEG4/ISO/AVC
  10. Duration                                 : 1 h 27 min
  11. Bit rate mode                            : Constant
  12. Bit rate                                 : 10 000 kb/s
  13. Width                                    : 1 440 pixels
  14. Height                                   : 1 080 pixels
  15. Display aspect ratio                     : 4:3
  16. Frame rate mode                          : Constant
  17. Frame rate                               : 24.000 FPS
  18. Color space                              : YUV
  19. Chroma subsampling                       : 4:2:0
  20. Bit depth                                : 8 bits
  21. Scan type                                : Progressive
  22. Bits/(Pixel*Frame)                       : 0.268
  23. Stream size                              : 5.89 GiB (98%)
  24. Default                                  : Yes
  25. Forced                                   : No
  26. Color range                              : Limited
  27. Color primaries                          : BT.709
  28. Transfer characteristics                 : BT.709
  29. Matrix coefficients                      : BT.709

  30. Audio
  31. ID                                       : 2
  32. Format                                   : E-AC-3
  33. Format/Info                              : Enhanced AC-3
  34. Commercial name                          : Dolby Digital Plus
  35. Codec ID                                 : A_EAC3
  36. Duration                                 : 1 h 27 min
  37. Bit rate mode                            : Constant
  38. Bit rate                                 : 224 kb/s
  39. Channel(s)                               : 2 channels
  40. Channel layout                           : L R
  41. Sampling rate                            : 48.0 kHz
  42. Frame rate                               : 31.250 FPS (1536 SPF)
  43. Compression mode                         : Lossy
  44. Stream size                              : 140 MiB (2%)
  45. Language                                 : English
  46. Service kind                             : Complete Main
  47. Default                                  : Yes
  48. Forced                                   : No
复制代码

石墙之前 Before.Stonewall.1984.1080p.AMZN.WEBRip.DDP2.0.x264-TEPES 6.03GB-2.png 234027pbvczuhjorbblb3h.png 石墙之前 Before.Stonewall.1984.1080p.AMZN.WEBRip.DDP2.0.x264-TEPES 6.03GB-4.png






回复

使用道具 举报

懒得打字嘛,点击右侧快捷回复 【右侧内容,后台自定义】
您需要登录后才可以回帖 登录 | 立即加入

本版积分规则

Archiver|小黑屋| 蓝光电影网 |网站地图

Copyright © 2021 Comsenz Inc. Powered by 蓝光电影网

蓝光电影网

本站内容由用户自主分享和转载自互联网,转载目的在于传递更多信息,并不代表本网赞同其观点和对其真实性负责。

如有侵权、违反国家法律政策行为,请联系我们,我们会第一时间及时清除和处理!

举报反馈邮箱:[email protected]

快速回复 返回顶部 返回列表