找回密码

蓝光电影网

查看: 97|回复: 0

[纪录] 绅士之死 Death.Of.A.Gentleman.2015.1080p.AMZN.WEBRip.DDP2.0.x264-TEPES 6.21GB

[复制链接]
蓝光币
382
发表于 2020-1-21 11:57:32 | 显示全部楼层 |阅读模式
名流之死 Death.Of.A.Gentleman.2015.1080p.AMZN.WEBRip.DDP2.0.x264-TEPES 6.21GB-1.png

译  名 名流之死
片  名 Death of a Gentleman
年  代 2015
产  地 英国
类  别 记载片
语  言 英语
上映日期 2015-06-08
IMDb评分  7.4/10 from 406 users
IMDb链接  https://www.imdb.com/title/tt4746370
豆瓣评分 0/10 from 0 users
豆瓣链接 https://movie.douban.com/subject/26665977/
片  长 99分钟(英国)
导  演 Johnny Collins / Sam Collins / Jarrod Kimber
编  剧 Sam Collins / Jon Hotten / Jarrod Kimber
主  演 Jonathan Agnew
       David Becker
       Ian Chappell


标  签 英國 | 英国记载片 | 紀錄片 | Netflix | 2015年 | 2015 | 2010年月 | 2010s

简  介  

  Two cricket journalists set off on a journey to the heart of the game they love, only to stumble upon one of the biggest sporting scandals ever. This is a film about passion, greed, power - and standing up for what you care about.
  1. Video
  2. ID                                       : 1
  3. Format                                   : AVC
  4. Format/Info                              : Advanced Video Codec
  5. Format profile                           : [email protected]
  6. Format settings                          : CABAC / 4 Ref Frames
  7. Format settings, CABAC                   : Yes
  8. Format settings, Reference frames        : 4 frames
  9. Codec ID                                 : V_MPEG4/ISO/AVC
  10. Duration                                 : 1 h 38 min
  11. Bit rate mode                            : Constant
  12. Bit rate                                 : 8 772 kb/s
  13. Nominal bit rate                         : 10 000 kb/s
  14. Width                                    : 1 920 pixels
  15. Height                                   : 1 080 pixels
  16. Display aspect ratio                     : 16:9
  17. Frame rate mode                          : Constant
  18. Frame rate                               : 23.976 (24000/1001) FPS
  19. Color space                              : YUV
  20. Chroma subsampling                       : 4:2:0
  21. Bit depth                                : 8 bits
  22. Scan type                                : Progressive
  23. Bits/(Pixel*Frame)                       : 0.176
  24. Stream size                              : 6.05 GiB (97%)
  25. Default                                  : Yes
  26. Forced                                   : No
  27. Color range                              : Limited
  28. Color primaries                          : BT.709
  29. Transfer characteristics                 : BT.709
  30. Matrix coefficients                      : BT.709

  31. Audio
  32. ID                                       : 2
  33. Format                                   : E-AC-3
  34. Format/Info                              : Enhanced AC-3
  35. Commercial name                          : Dolby Digital Plus
  36. Codec ID                                 : A_EAC3
  37. Duration                                 : 1 h 38 min
  38. Bit rate mode                            : Constant
  39. Bit rate                                 : 224 kb/s
  40. Channel(s)                               : 2 channels
  41. Channel layout                           : L R
  42. Sampling rate                            : 48.0 kHz
  43. Frame rate                               : 31.250 FPS (1536 SPF)
  44. Compression mode                         : Lossy
  45. Stream size                              : 158 MiB (2%)
  46. Language                                 : English
  47. Service kind                             : Complete Main
  48. Default                                  : Yes
  49. Forced                                   : No
复制代码

名流之死 Death.Of.A.Gentleman.2015.1080p.AMZN.WEBRip.DDP2.0.x264-TEPES 6.21GB-2.png 名流之死 Death.Of.A.Gentleman.2015.1080p.AMZN.WEBRip.DDP2.0.x264-TEPES 6.21GB-3.png 名流之死 Death.Of.A.Gentleman.2015.1080p.AMZN.WEBRip.DDP2.0.x264-TEPES 6.21GB-4.png






回复

使用道具 举报

懒得打字嘛,点击右侧快捷回复 【右侧内容,后台自定义】
您需要登录后才可以回帖 登录 | 立即加入

本版积分规则

Archiver|小黑屋| 蓝光电影网 |网站地图

Copyright © 2021 Comsenz Inc. Powered by 蓝光电影网

蓝光电影网

本站内容由用户自主分享和转载自互联网,转载目的在于传递更多信息,并不代表本网赞同其观点和对其真实性负责。

如有侵权、违反国家法律政策行为,请联系我们,我们会第一时间及时清除和处理!

举报反馈邮箱:[email protected]om

快速回复 返回顶部 返回列表