找回密码

蓝光电影网

查看: 237|回复: 0

[剧情] 傻丫头日记 Dear.Dumb.Diary.2013.1080p.AMZN.WEBRip.DDP5.1.x264-TEPES 6.23GB

[复制链接]
蓝光币
426
发表于 2020-1-21 11:58:38 | 显示全部楼层 |阅读模式
傻丫头日志 Dear.Dumb.Diary.2013.1080p.AMZN.WEBRip.DDP5.1.x264-TEPES 6.23GB-1.png

译  名 傻丫头日志
片  名 Dear Dumb Diary
年  代 2013
产  地 美国
类  别 剧情 / 家庭 / 儿童
语  言 英语
上映日期 2013-09-06
IMDb评分  5.4/10 from 586 users
IMDb链接  https://www.imdb.com/title/tt3102360
豆瓣评分 7.1/10 from 42 users
豆瓣链接 https://movie.douban.com/subject/25728565/
片  长 84分钟
导  演 克里斯汀·哈吉 Kristin Hanggi
编  剧 Jim Benton
主  演 Emily Alyn Lind
       Mary-Charles Jones
       David Mazouz
       Sterling Griffith
       James Waterston


标  签 笑剧 | 童年 | 美国 | 歌舞 | 校园 | 英语电影 | DavidMazouz | gfgdf

简  介  

  暂无相关剧情先容
  1. Video
  2. ID                                       : 1
  3. Format                                   : AVC
  4. Format/Info                              : Advanced Video Codec
  5. Format profile                           : [email protected]
  6. Format settings                          : CABAC / 4 Ref Frames
  7. Format settings, CABAC                   : Yes
  8. Format settings, Reference frames        : 4 frames
  9. Codec ID                                 : V_MPEG4/ISO/AVC
  10. Duration                                 : 1 h 27 min
  11. Bit rate mode                            : Constant
  12. Bit rate                                 : 9 522 kb/s
  13. Nominal bit rate                         : 10 000 kb/s
  14. Width                                    : 1 920 pixels
  15. Height                                   : 1 080 pixels
  16. Display aspect ratio                     : 16:9
  17. Frame rate mode                          : Constant
  18. Frame rate                               : 23.976 (24000/1001) FPS
  19. Color space                              : YUV
  20. Chroma subsampling                       : 4:2:0
  21. Bit depth                                : 8 bits
  22. Scan type                                : Progressive
  23. Bits/(Pixel*Frame)                       : 0.192
  24. Stream size                              : 5.84 GiB (94%)
  25. Default                                  : Yes
  26. Forced                                   : No
  27. Color range                              : Limited
  28. Color primaries                          : BT.709
  29. Transfer characteristics                 : BT.709
  30. Matrix coefficients                      : BT.709

  31. Audio
  32. ID                                       : 2
  33. Format                                   : E-AC-3
  34. Format/Info                              : Enhanced AC-3
  35. Commercial name                          : Dolby Digital Plus
  36. Codec ID                                 : A_EAC3
  37. Duration                                 : 1 h 27 min
  38. Bit rate mode                            : Constant
  39. Bit rate                                 : 640 kb/s
  40. Channel(s)                               : 6 channels
  41. Channel layout                           : L R C LFE Ls Rs
  42. Sampling rate                            : 48.0 kHz
  43. Frame rate                               : 31.250 FPS (1536 SPF)
  44. Compression mode                         : Lossy
  45. Stream size                              : 402 MiB (6%)
  46. Language                                 : English
  47. Service kind                             : Complete Main
  48. Default                                  : Yes
  49. Forced                                   : No
复制代码

傻丫头日志 Dear.Dumb.Diary.2013.1080p.AMZN.WEBRip.DDP5.1.x264-TEPES 6.23GB-2.png 傻丫头日志 Dear.Dumb.Diary.2013.1080p.AMZN.WEBRip.DDP5.1.x264-TEPES 6.23GB-3.png 傻丫头日志 Dear.Dumb.Diary.2013.1080p.AMZN.WEBRip.DDP5.1.x264-TEPES 6.23GB-4.png






回复

使用道具 举报

懒得打字嘛,点击右侧快捷回复 【右侧内容,后台自定义】
您需要登录后才可以回帖 登录 | 立即加入

本版积分规则

Archiver|小黑屋| 蓝光电影网 |网站地图

Copyright © 2021 Comsenz Inc. Powered by 蓝光电影网

蓝光电影网

本站内容由用户自主分享和转载自互联网,转载目的在于传递更多信息,并不代表本网赞同其观点和对其真实性负责。

如有侵权、违反国家法律政策行为,请联系我们,我们会第一时间及时清除和处理!

举报反馈邮箱:[email protected]

快速回复 返回顶部 返回列表