找回密码

蓝光电影网

查看: 279|回复: 1

[剧情] 父亲在世时 There.Was.A.Father.1942.JAPANESE.1080p.BluRay.x264.DTS-FGT 7.90GB

[复制链接]
蓝光币
382
发表于 2020-1-21 11:59:42 | 显示全部楼层 |阅读模式
父亲在世时 There.Was.A.Father.1942.JAPANESE.1080p.BluRay.x264.DTS-FGT 7.90GB-1.png

译  名 父亲在世时 / Chichi ariki / There Was a Father / 畴前有位父亲 / 分开父亲的日子
片  名 父ありき
年  代 1942
产  地 日本
类  别 剧情
语  言 日语
上映日期 1942-04-01(日本)
IMDb评分  7.7/10 from 2209 users
IMDb链接  https://www.imdb.com/title/tt0034591
豆瓣评分 8.4/10 from 2345 users
豆瓣链接 https://movie.douban.com/subject/1304405/
片  长 USA: 94 分钟
导  演 小津安二郎 Yasujir? Ozu
编  剧 池田忠雄 Tadao Ikeda / 柳井隆雄 Takao Yanai / 小津安二郎 Yasujir? Ozu
主  演 笠智众 Chish? Ry?
       水户光子 Mitsuko Mito
       佐野周二 Sh?ji Sano
       坂本武 Takeshi Sakamoto
       大塚正义
       日守新一 Shin'ichi Himori
       津田晴彦
       佐分利信 Shin Saburi


标  签 小津安二郎 | 日本 | 日本电影 | 1942 | 笠智众 | 1940s | 黑白 | CC

简  介  

  家住金泽的教师堀川周平(笠智众 饰)是一小我生坎坷的汉子,他的妻子晚年归天,多年来周平单独历尽艰辛将儿子良平养大。在某次远足中,一位门生不幸溺毙,周平作为负责人引咎告退。落空工作后他带着儿子回到故家书州,并在村里谋得一份差使委曲过活。良平进修还算勤奋,他进入中学后寄宿黉舍,而为了能供儿子完成接下来的学业,周平单身前往东京工作。此去经年,黄天不负故意人的良平(佐野周二 饰)考入仙台帝大,进而在秋田的一所黉舍获得教师的岗位。他日昔盼望和父亲重聚,怎奈周平尽力支持儿子的奇迹,不忍拖周平的后腿。在动乱的光阴迁移,父子分出两地遥遥相望……
  本片剧本是小津安二郎于1937年出征前夜完成的。
  1. Video
  2. ID                                       : 1
  3. Format                                   : AVC
  4. Format/Info                              : Advanced Video Codec
  5. Format profile                           : [email protected]
  6. Format settings                          : CABAC / 4 Ref Frames
  7. Format settings, CABAC                   : Yes
  8. Format settings, Reference frames        : 4 frames
  9. Codec ID                                 : V_MPEG4/ISO/AVC
  10. Duration                                 : 1 h 26 min
  11. Bit rate                                 : 11.5 Mb/s
  12. Width                                    : 1 440 pixels
  13. Height                                   : 1 080 pixels
  14. Display aspect ratio                     : 4:3
  15. Frame rate mode                          : Constant
  16. Frame rate                               : 23.976 (24000/1001) FPS
  17. Color space                              : YUV
  18. Chroma subsampling                       : 4:2:0
  19. Bit depth                                : 8 bits
  20. Scan type                                : Progressive
  21. Bits/(Pixel*Frame)                       : 0.308
  22. Stream size                              : 6.98 GiB (88%)
  23. Title                                    : There.Was.A.Father.1942.JAPANESE.1080p.BluRay.x264.DTS-FGT
  24. Writing library                          : x264 core 148 r2748 97eaef2
  25. Encoding settings                        : cabac=1 / ref=4 / deblock=1:-2:-2 / analyse=0x3:0x113 / me=umh / subme=9 / psy=1 / psy_rd=1.00:0.15 / mixed_ref=1 / me_range=16 / chroma_me=1 / trellis=2 / 8x8dct=1 / cqm=0 / deadzone=21,11 / fast_pskip=1 / chroma_qp_offset=-3 / threads=24 / lookahead_threads=3 / sliced_threads=0 / nr=0 / decimate=1 / interlaced=0 / bluray_compat=0 / constrained_intra=0 / bframes=3 / b_pyramid=2 / b_adapt=1 / b_bias=0 / direct=3 / weightb=1 / open_gop=0 / weightp=2 / keyint=250 / keyint_min=25 / scenecut=40 / intra_refresh=0 / rc_lookahead=50 / rc=2pass / mbtree=1 / bitrate=11500 / ratetol=1.0 / qcomp=0.60 / qpmin=0 / qpmax=69 / qpstep=4 / cplxblur=20.0 / qblur=0.5 / vbv_maxrate=31250 / vbv_bufsize=31250 / nal_hrd=none / filler=0 / ip_ratio=1.40 / aq=1:1.00
  26. Language                                 : Japanese
  27. Default                                  : Yes
  28. Forced                                   : No

  29. Audio
  30. ID                                       : 2
  31. Format                                   : DTS
  32. Format/Info                              : Digital Theater Systems
  33. Codec ID                                 : A_DTS
  34. Duration                                 : 1 h 26 min
  35. Bit rate mode                            : Constant
  36. Bit rate                                 : 1 509 kb/s
  37. Channel(s)                               : 2 channels
  38. Channel layout                           : L R
  39. Sampling rate                            : 48.0 kHz
  40. Frame rate                               : 93.750 FPS (512 SPF)
  41. Bit depth                                : 16 bits
  42. Compression mode                         : Lossy
  43. Stream size                              : 938 MiB (12%)
  44. Title                                    : There.Was.A.Father.1942.JAPANESE.1080p.BluRay.x264.DTS-FGT
  45. Language                                 : Japanese
  46. Default                                  : Yes
  47. Forced                                   : No

  48. Text
  49. ID                                       : 3
  50. Format                                   : UTF-8
  51. Codec ID                                 : S_TEXT/UTF8
  52. Codec ID/Info                            : UTF-8 Plain Text
  53. Duration                                 : 1 h 25 min
  54. Bit rate                                 : 43 b/s
  55. Count of elements                        : 802
  56. Stream size                              : 27.3 KiB (0%)
  57. Language                                 : English
  58. Default                                  : Yes
  59. Forced                                   : No

  60. Menu
  61. 00:00:00.000                             : en:Opening titles
  62. 00:07:01.671                             : en:Accident
  63. 00:13:17.296                             : en:Ueda
  64. 00:22:01.946                             : en:Boarding school
  65. 00:31:57.165                             : en:An old friend
  66. 00:39:33.830                             : en:Like father...
  67. 00:44:57.194                             : en:Reunion
  68. 00:51:42.141                             : en:Duty
  69. 00:58:53.739                             : en:Army
  70. 01:03:05.532                             : en:School get-together
  71. 01:11:22.195                             : en:Dignity
  72. 01:23:45.771                             : en:The best week of my life
复制代码

父亲在世时 There.Was.A.Father.1942.JAPANESE.1080p.BluRay.x264.DTS-FGT 7.90GB-2.png 父亲在世时 There.Was.A.Father.1942.JAPANESE.1080p.BluRay.x264.DTS-FGT 7.90GB-3.png 父亲在世时 There.Was.A.Father.1942.JAPANESE.1080p.BluRay.x264.DTS-FGT 7.90GB-4.png






回复

使用道具 举报

懒得打字嘛,点击右侧快捷回复 【右侧内容,后台自定义】
您需要登录后才可以回帖 登录 | 立即加入

本版积分规则

Archiver|小黑屋| 蓝光电影网 |网站地图

Copyright © 2021 Comsenz Inc. Powered by 蓝光电影网

蓝光电影网

本站内容由用户自主分享和转载自互联网,转载目的在于传递更多信息,并不代表本网赞同其观点和对其真实性负责。

如有侵权、违反国家法律政策行为,请联系我们,我们会第一时间及时清除和处理!

举报反馈邮箱:[email protected]

快速回复 返回顶部 返回列表