找回密码

蓝光电影网

查看: 137|回复: 0

[喜剧] 大展猴威2:滑板高手 MVP.2.Most.Vertical.Primate.2001.1080p.AMZN.WEBRip.DDP5.1.x264-TEPES 6.13GB

[复制链接]
蓝光币
426
发表于 2020-1-21 12:08:12 | 显示全部楼层 |阅读模式
大展猴威2:滑板高手 MVP.2.Most.Vertical.Primate.2001.1080p.AMZN.WEBRip.DDP5.1.x264-TEPES 6.13GB-1.png

译  名 大展猴威2:滑板高手 / MVP 2
片  名 MVP: Most Vertical Primate
年  代 2001
产  地 加拿大 / 美国
类  别 笑剧 / 家庭
语  言 英语
上映日期 2001-10-05(加拿大)
IMDb评分  3.7/10 from 988 users
IMDb链接  https://www.imdb.com/title/tt0285685
豆瓣评分 7.5/10 from 102 users
豆瓣链接 https://movie.douban.com/subject/3577743/
片  长 87 分钟
导  演 Robert Vince
编  剧 Anne Vince / Robert Vince
主  演 Tony Alcantar
       瑞恩·谢克勒 Ryan Sheckler
       卡梅隆·班克劳弗特 Cameron Bancroft


标  签 猩猩 | 特技名猩 | 笑剧 | 美国 | 动物 | 电影 | 加拿大电影 | 2001

简  介  

  一猴当关,万夫莫敌!杰克是一只3岁的黑猩猩,为某大学研讨与人类相同的工具。前一集杰克加入冰上曲棍球队,而且率领队友们赢得角逐成功。在第二集合,杰克又将若何发挥他的超级明星魅力,横扫活动界呢?
  在偶然的情况下,西雅图球队吸收了一只叫杰克的大猩猩作为球员。这个奇招激起了球员更加团结,更有活力,也激起了观众的热情,但却招致其他球队的不满,而想法谗谄大明”猩”杰克…
  很是喜好玩滑板的孤儿班,在玩滑板时吸引了负气出走的杰克。班教会了杰克玩滑板,更一路完长大久以来应战滑板大赛的胡想。
  1. Video
  2. ID                                       : 1
  3. Format                                   : AVC
  4. Format/Info                              : Advanced Video Codec
  5. Format profile                           : [email protected]
  6. Format settings                          : CABAC / 4 Ref Frames
  7. Format settings, CABAC                   : Yes
  8. Format settings, Reference frames        : 4 frames
  9. Codec ID                                 : V_MPEG4/ISO/AVC
  10. Duration                                 : 1 h 26 min
  11. Bit rate mode                            : Constant
  12. Bit rate                                 : 9 483 kb/s
  13. Nominal bit rate                         : 10 000 kb/s
  14. Width                                    : 1 920 pixels
  15. Height                                   : 1 080 pixels
  16. Display aspect ratio                     : 16:9
  17. Frame rate mode                          : Constant
  18. Frame rate                               : 23.976 (24000/1001) FPS
  19. Color space                              : YUV
  20. Chroma subsampling                       : 4:2:0
  21. Bit depth                                : 8 bits
  22. Scan type                                : Progressive
  23. Bits/(Pixel*Frame)                       : 0.191
  24. Stream size                              : 5.74 GiB (94%)
  25. Default                                  : Yes
  26. Forced                                   : No
  27. Color range                              : Limited
  28. Color primaries                          : BT.709
  29. Transfer characteristics                 : BT.709
  30. Matrix coefficients                      : BT.709

  31. Audio
  32. ID                                       : 2
  33. Format                                   : E-AC-3
  34. Format/Info                              : Enhanced AC-3
  35. Commercial name                          : Dolby Digital Plus
  36. Codec ID                                 : A_EAC3
  37. Duration                                 : 1 h 26 min
  38. Bit rate mode                            : Constant
  39. Bit rate                                 : 640 kb/s
  40. Channel(s)                               : 6 channels
  41. Channel layout                           : L R C LFE Ls Rs
  42. Sampling rate                            : 48.0 kHz
  43. Frame rate                               : 31.250 FPS (1536 SPF)
  44. Compression mode                         : Lossy
  45. Stream size                              : 397 MiB (6%)
  46. Language                                 : English
  47. Service kind                             : Complete Main
  48. Default                                  : Yes
  49. Forced                                   : No

  50. Text #1
  51. ID                                       : 3
  52. Format                                   : UTF-8
  53. Codec ID                                 : S_TEXT/UTF8
  54. Codec ID/Info                            : UTF-8 Plain Text
  55. Duration                                 : 1 h 22 min
  56. Bit rate                                 : 49 b/s
  57. Count of elements                        : 1129
  58. Stream size                              : 30.3 KiB (0%)
  59. Title                                    : SDH
  60. Language                                 : English
  61. Default                                  : No
  62. Forced                                   : No

  63. Text #2
  64. ID                                       : 4
  65. Format                                   : UTF-8
  66. Codec ID                                 : S_TEXT/UTF8
  67. Codec ID/Info                            : UTF-8 Plain Text
  68. Duration                                 : 1 h 22 min
  69. Bit rate                                 : 49 b/s
  70. Count of elements                        : 1129
  71. Stream size                              : 30.0 KiB (0%)
  72. Title                                    : SDH
  73. Language                                 : English
  74. Default                                  : No
  75. Forced                                   : No
复制代码

大展猴威2:滑板高手 MVP.2.Most.Vertical.Primate.2001.1080p.AMZN.WEBRip.DDP5.1.x264-TEPES 6.13GB-2.png 大展猴威2:滑板高手 MVP.2.Most.Vertical.Primate.2001.1080p.AMZN.WEBRip.DDP5.1.x264-TEPES 6.13GB-3.png 大展猴威2:滑板高手 MVP.2.Most.Vertical.Primate.2001.1080p.AMZN.WEBRip.DDP5.1.x264-TEPES 6.13GB-4.png






回复

使用道具 举报

懒得打字嘛,点击右侧快捷回复 【右侧内容,后台自定义】
您需要登录后才可以回帖 登录 | 立即加入

本版积分规则

Archiver|小黑屋| 蓝光电影网 |网站地图

Copyright © 2021 Comsenz Inc. Powered by 蓝光电影网

蓝光电影网

本站内容由用户自主分享和转载自互联网,转载目的在于传递更多信息,并不代表本网赞同其观点和对其真实性负责。

如有侵权、违反国家法律政策行为,请联系我们,我们会第一时间及时清除和处理!

举报反馈邮箱:[email protected]

快速回复 返回顶部 返回列表