找回密码

蓝光电影网

查看: 334|回复: 2

[剧情] 黑洞 The.Black.Hole.1979.UNCUT.1080p.BluRay.x264.DTS-FGT 8.88GB

[复制链接]
蓝光币
382
发表于 2020-1-21 12:10:02 | 显示全部楼层 |阅读模式
黑洞 The.Black.Hole.1979.UNCUT.1080p.BluRay.x264.DTS-FGT 8.88GB-1.png

译  名 黑洞
片  名 The Black Hole
年  代 1979
产  地 美国
类  别 行动 / 科幻 / 家庭 / 冒险
语  言 英语
上映日期 1979-12-21(美国)
IMDb评分  6.0/10 from 21870 users
IMDb链接  https://www.imdb.com/title/tt0078869
豆瓣评分 5.7/10 from 164 users
豆瓣链接 https://movie.douban.com/subject/1293543/
片  长 98分钟
导  演 Gary Nelson
编  剧 Bob Barbash / Gerry Day / Jeb Rosebrook / Richard H. Landau
主  演 马克西米连·谢尔 Maximilian Schell
       安东尼·博金斯 Anthony Perkins
       罗伯特·福斯特 Robert Forster
       欧内斯特·博格宁 Ernest Borgnine


标  签 科幻 | 美国 | 1979 | 迪斯尼 | 电影 | 1970s | 奥斯卡 | 行动

简  介  

  在外太空探险的美国“天鹅号”太空船,由刻毒严重的蓝刻博士带领,他有著一个狂妄的科学计画,正诡计停止中,机遇巧遇的“天鹅号”找到了宇宙最奥秘的禁地——黑洞,他们掉臂一切的闯入,履历了人类史无前例的冒险过程。

获奖情况  

  第52届奥斯卡金像奖(1980)
  最好摄影(提名) 弗兰克·V·菲利普斯
  最好视觉结果(提名) Harrison Ellenshaw / 亚特·克鲁克香克 / 尤斯塔斯·莱塞特 / 彼得·艾伦肖 / 丹尼·李 / 乔·哈尔
  1. Video
  2. ID                                       : 1
  3. Format                                   : AVC
  4. Format/Info                              : Advanced Video Codec
  5. Format profile                           : [email protected]
  6. Format settings                          : CABAC / 4 Ref Frames
  7. Format settings, CABAC                   : Yes
  8. Format settings, Reference frames        : 4 frames
  9. Codec ID                                 : V_MPEG4/ISO/AVC
  10. Duration                                 : 1 h 37 min
  11. Bit rate                                 : 11.5 Mb/s
  12. Width                                    : 1 920 pixels
  13. Height                                   : 816 pixels
  14. Display aspect ratio                     : 2.35:1
  15. Frame rate mode                          : Constant
  16. Frame rate                               : 23.976 (24000/1001) FPS
  17. Color space                              : YUV
  18. Chroma subsampling                       : 4:2:0
  19. Bit depth                                : 8 bits
  20. Scan type                                : Progressive
  21. Bits/(Pixel*Frame)                       : 0.306
  22. Stream size                              : 7.85 GiB (88%)
  23. Title                                    : The.Black.Hole.1979.UNCUT.1080p.BluRay.x264.DTS-FGT
  24. Writing library                          : x264 core 148 r2748 97eaef2
  25. Encoding settings                        : cabac=1 / ref=4 / deblock=1:-2:-2 / analyse=0x3:0x113 / me=umh / subme=9 / psy=1 / psy_rd=1.00:0.15 / mixed_ref=1 / me_range=16 / chroma_me=1 / trellis=2 / 8x8dct=1 / cqm=0 / deadzone=21,11 / fast_pskip=1 / chroma_qp_offset=-3 / threads=24 / lookahead_threads=3 / sliced_threads=0 / nr=0 / decimate=1 / interlaced=0 / bluray_compat=0 / constrained_intra=0 / bframes=3 / b_pyramid=2 / b_adapt=1 / b_bias=0 / direct=3 / weightb=1 / open_gop=0 / weightp=2 / keyint=250 / keyint_min=25 / scenecut=40 / intra_refresh=0 / rc_lookahead=50 / rc=2pass / mbtree=1 / bitrate=11500 / ratetol=1.0 / qcomp=0.60 / qpmin=0 / qpmax=69 / qpstep=4 / cplxblur=20.0 / qblur=0.5 / vbv_maxrate=31250 / vbv_bufsize=31250 / nal_hrd=none / filler=0 / ip_ratio=1.40 / aq=1:1.00
  26. Language                                 : English
  27. Default                                  : Yes
  28. Forced                                   : No

  29. Audio
  30. ID                                       : 2
  31. Format                                   : DTS
  32. Format/Info                              : Digital Theater Systems
  33. Codec ID                                 : A_DTS
  34. Duration                                 : 1 h 37 min
  35. Bit rate mode                            : Constant
  36. Bit rate                                 : 1 509 kb/s
  37. Channel(s)                               : 6 channels
  38. Channel layout                           : C L R Ls Rs LFE
  39. Sampling rate                            : 48.0 kHz
  40. Frame rate                               : 93.750 FPS (512 SPF)
  41. Bit depth                                : 24 bits
  42. Compression mode                         : Lossy
  43. Stream size                              : 1.03 GiB (12%)
  44. Title                                    : The.Black.Hole.1979.UNCUT.1080p.BluRay.x264.DTS-FGT
  45. Language                                 : English
  46. Default                                  : Yes
  47. Forced                                   : No

  48. Text
  49. ID                                       : 3
  50. Format                                   : UTF-8
  51. Codec ID                                 : S_TEXT/UTF8
  52. Codec ID/Info                            : UTF-8 Plain Text
  53. Duration                                 : 1 h 33 min
  54. Bit rate                                 : 52 b/s
  55. Count of elements                        : 992
  56. Stream size                              : 36.3 KiB (0%)
  57. Language                                 : English
  58. Default                                  : Yes
  59. Forced                                   : No

  60. Menu
  61. 00:00:00.000                             : en:Chapter 01
  62. 00:08:03.065                             : en:Chapter 02
  63. 00:22:28.597                             : en:Chapter 03
  64. 00:29:31.936                             : en:Chapter 04
  65. 00:38:39.650                             : en:Chapter 05
  66. 00:43:32.484                             : en:Chapter 06
  67. 01:04:04.841                             : en:Chapter 07
  68. 01:13:04.713                             : en:Chapter 08
  69. 01:22:14.721                             : en:Chapter 09
  70. 01:28:08.574                             : en:Chapter 10
复制代码

黑洞 The.Black.Hole.1979.UNCUT.1080p.BluRay.x264.DTS-FGT 8.88GB-1.png 黑洞 The.Black.Hole.1979.UNCUT.1080p.BluRay.x264.DTS-FGT 8.88GB-3.png 黑洞 The.Black.Hole.1979.UNCUT.1080p.BluRay.x264.DTS-FGT 8.88GB-4.png






回复

使用道具 举报

蓝光币
59
发表于 2020-1-21 13:40:09 | 显示全部楼层

楼主太厉害了!楼主,电影应该很好看我觉得蓝光电影网真是个好地方!
回复 支持 反对

使用道具 举报

蓝光币
643
发表于 2020-1-22 09:02:13 | 显示全部楼层
谢谢楼主无私分享。
回复 支持 反对

使用道具 举报

懒得打字嘛,点击右侧快捷回复 【右侧内容,后台自定义】
您需要登录后才可以回帖 登录 | 立即加入

本版积分规则

Archiver|小黑屋| 蓝光电影网 |网站地图

Copyright © 2021 Comsenz Inc. Powered by 蓝光电影网

蓝光电影网

本站内容由用户自主分享和转载自互联网,转载目的在于传递更多信息,并不代表本网赞同其观点和对其真实性负责。

如有侵权、违反国家法律政策行为,请联系我们,我们会第一时间及时清除和处理!

举报反馈邮箱:[email protected]

快速回复 返回顶部 返回列表