找回密码

蓝光电影网

查看: 81|回复: 0

[喜剧] 像豹一样行走 Walk.Like.a.Panther.2018.1080p.WEB-DL.DD5.1.H264-FGT 3.71GB

[复制链接]
蓝光币
426
发表于 2020-1-22 15:01:39 | 显示全部楼层 |阅读模式
像豹一样行走 Walk.Like.a.Panther.2018.1080p.WEB-DL.DD5.1.H264-FGT 3.71GB-1.png

译  名 像豹一样行走 / Panther
片  名 Walk Like a Panther
年  代 2018
产  地 英国
类  别 笑剧
语  言 英语
上映日期 2018-03-09(英国)
IMDb评分  4.9/10 from 451 users
IMDb链接  https://www.imdb.com/title/tt6962204
豆瓣评分 0/10 from 0 users
豆瓣链接 https://movie.douban.com/subject/27664152/
导  演 丹·卡丹 Dan Cadan
编  剧 丹·卡丹 Dan Cadan
主  演 朱利安·山德斯 Julian Sands
       斯蒂芬·格拉汉姆 Stephen Graham
       杰森·弗莱明 Jason Flemyng
       迈克尔·索恰 Michael Socha
       史蒂芬·汤普金森 Stephen Tompkinson
       吉尔·哈弗本尼 Jill Halfpenny
       苏·乔斯顿 Sue Johnston
       斯克鲁比斯·皮普 Scroobius Pip
       罗比·基 Robbie Gee
       斯蒂芬·马库斯 Stephen Marcus
       亚当·弗格蒂 Adam Fogerty
       戴夫·琼斯 Dave Johns
       Hannah Walters
       Peter Martin
       Jenna Manning


标  签 [歐美]

简  介  

  故事围绕一群80年月的摔跤选手,他们心爱确当地酒吧面临被封闭的险境,大师被迫穿上战袍展开拯救社区的计划,重新扑灭旧时的友谊、毗连家庭纽带。
  1. Video
  2. ID                                       : 1
  3. Format                                   : AVC
  4. Format/Info                              : Advanced Video Codec
  5. Format profile                           : [email protected]
  6. Format settings                          : CABAC / 5 Ref Frames
  7. Format settings, CABAC                   : Yes
  8. Format settings, Reference frames        : 5 frames
  9. Codec ID                                 : V_MPEG4/ISO/AVC
  10. Duration                                 : 1 h 48 min
  11. Bit rate                                 : 4 523 kb/s
  12. Width                                    : 1 916 pixels
  13. Height                                   : 796 pixels
  14. Display aspect ratio                     : 2.40:1
  15. Frame rate mode                          : Constant
  16. Frame rate                               : 23.976 (23976/1000) FPS
  17. Color space                              : YUV
  18. Chroma subsampling                       : 4:2:0
  19. Bit depth                                : 8 bits
  20. Scan type                                : Progressive
  21. Bits/(Pixel*Frame)                       : 0.124
  22. Stream size                              : 3.42 GiB (92%)
  23. Title                                    : Walk.Like.a.Panther.2018.1080p.WEB-DL.DD5.1.H264-FGT
  24. Language                                 : English
  25. Default                                  : Yes
  26. Forced                                   : No
  27. Color range                              : Limited
  28. Color primaries                          : BT.709
  29. Transfer characteristics                 : BT.709
  30. Matrix coefficients                      : BT.709

  31. Audio
  32. ID                                       : 2
  33. Format                                   : AC-3
  34. Format/Info                              : Audio Coding 3
  35. Commercial name                          : Dolby Digital
  36. Codec ID                                 : A_AC3
  37. Duration                                 : 1 h 48 min
  38. Bit rate mode                            : Constant
  39. Bit rate                                 : 384 kb/s
  40. Channel(s)                               : 6 channels
  41. Channel layout                           : L R C LFE Ls Rs
  42. Sampling rate                            : 48.0 kHz
  43. Frame rate                               : 31.250 FPS (1536 SPF)
  44. Bit depth                                : 16 bits
  45. Compression mode                         : Lossy
  46. Stream size                              : 298 MiB (8%)
  47. Title                                    : Walk.Like.a.Panther.2018.1080p.WEB-DL.DD5.1.H264-FGT
  48. Language                                 : English
  49. Service kind                             : Complete Main
  50. Default                                  : Yes
  51. Forced                                   : No

  52. Text
  53. ID                                       : 3
  54. Format                                   : UTF-8
  55. Codec ID                                 : S_TEXT/UTF8
  56. Codec ID/Info                            : UTF-8 Plain Text
  57. Duration                                 : 1 h 47 min
  58. Bit rate                                 : 76 b/s
  59. Count of elements                        : 1859
  60. Stream size                              : 60.4 KiB (0%)
  61. Language                                 : English
  62. Default                                  : Yes
  63. Forced                                   : No

  64. Menu
  65. 00:00:00.000                             : en:Chapter 01
  66. 00:05:19.152                             : en:Chapter 02
  67. 00:18:08.546                             : en:Chapter 03
  68. 00:26:58.951                             : en:Chapter 04
  69. 00:36:28.228                             : en:Chapter 05
  70. 00:43:41.619                             : en:Chapter 06
  71. 00:54:21.425                             : en:Chapter 07
  72. 01:03:36.854                             : en:Chapter 08
  73. 01:18:22.823                             : en:Chapter 09
  74. 01:25:45.848                             : en:Chapter 10
  75. 01:32:26.247                             : en:Chapter 11
  76. 01:44:05.154                             : en:Chapter 12
复制代码

像豹一样行走 Walk.Like.a.Panther.2018.1080p.WEB-DL.DD5.1.H264-FGT 3.71GB-2.png 像豹一样行走 Walk.Like.a.Panther.2018.1080p.WEB-DL.DD5.1.H264-FGT 3.71GB-3.png 像豹一样行走 Walk.Like.a.Panther.2018.1080p.WEB-DL.DD5.1.H264-FGT 3.71GB-4.png






回复

使用道具 举报

懒得打字嘛,点击右侧快捷回复 【右侧内容,后台自定义】
您需要登录后才可以回帖 登录 | 立即加入

本版积分规则

Archiver|小黑屋| 蓝光电影网 |网站地图

Copyright © 2021 Comsenz Inc. Powered by 蓝光电影网

蓝光电影网

本站内容由用户自主分享和转载自互联网,转载目的在于传递更多信息,并不代表本网赞同其观点和对其真实性负责。

如有侵权、违反国家法律政策行为,请联系我们,我们会第一时间及时清除和处理!

举报反馈邮箱:[email protected]

快速回复 返回顶部 返回列表