找回密码

蓝光电影网

查看: 103|回复: 0

[惊悚] 可怕的两个/天牲一对 The.Terrible.Two.2018.1080p.WEB-DL.DD5.1.H264-FGT 3.30GB

[复制链接]
蓝光币
382
发表于 2020-1-22 15:02:48 | 显示全部楼层 |阅读模式
可怕的两个/天牲一对 The.Terrible.Two.2018.1080p.WEB-DL.DD5.1.H264-FGT 3.30GB-1.png

译  名 可怕的两个 / 天牲一对(台)
片  名 The Terrible Two
年  代 2017
产  地 美国
类  别 惊悚 / 可骇
语  言 英语
上映日期 2018-03-06(美国)
IMDb评分  2.3/10 from 283 users
IMDb链接  https://www.imdb.com/title/tt5278886
豆瓣评分 0/10 from 0 users
豆瓣链接 https://movie.douban.com/subject/27002760/
片  长 84分钟
导  演 Billy Lewis
编  剧 Billy Lewis
主  演 唐尼·波阿斯 Donny Boaz
       Cari Moskow
       Reid Doyle
       Devin McGee
       Maureen Mountcastle


标  签 恶魔/驱魔系列 | 电影 | 可骇 | 2017 | 12

简  介  

  亞伯特和蘿絲這對夫妻,七年前在北卡羅萊納州買下了一棟夢寐以求的屋子,但他們卻對這屋子之前所發生過的可骇事务一無所知。這一天,是他們5歲和6歲女兒去世一週年的忌日,同時也是她們的冥誕;隨著女兒們的死因及衡宇的黑暗祕密逐漸揭穿,他們被迫與女兒們的亡靈展開生死搏鬥……
  1. Video
  2. ID                                       : 1
  3. Format                                   : AVC
  4. Format/Info                              : Advanced Video Codec
  5. Format profile                           : [email protected]
  6. Format settings                          : CABAC / 4 Ref Frames
  7. Format settings, CABAC                   : Yes
  8. Format settings, Reference frames        : 4 frames
  9. Codec ID                                 : V_MPEG4/ISO/AVC
  10. Duration                                 : 1 h 23 min
  11. Bit rate                                 : 5 242 kb/s
  12. Width                                    : 1 920 pixels
  13. Height                                   : 1 080 pixels
  14. Display aspect ratio                     : 16:9
  15. Frame rate mode                          : Constant
  16. Frame rate                               : 23.976 (23976/1000) FPS
  17. Color space                              : YUV
  18. Chroma subsampling                       : 4:2:0
  19. Bit depth                                : 8 bits
  20. Scan type                                : Progressive
  21. Bits/(Pixel*Frame)                       : 0.105
  22. Stream size                              : 3.07 GiB (93%)
  23. Title                                    : The.Terrible.Two.2018.1080p.WEB-DL.DD5.1.H264-FGT
  24. Language                                 : English
  25. Default                                  : Yes
  26. Forced                                   : No
  27. Color range                              : Limited
  28. Color primaries                          : BT.709
  29. Transfer characteristics                 : BT.709
  30. Matrix coefficients                      : BT.709

  31. Audio
  32. ID                                       : 2
  33. Format                                   : AC-3
  34. Format/Info                              : Audio Coding 3
  35. Commercial name                          : Dolby Digital
  36. Codec ID                                 : A_AC3
  37. Duration                                 : 1 h 23 min
  38. Bit rate mode                            : Constant
  39. Bit rate                                 : 384 kb/s
  40. Channel(s)                               : 6 channels
  41. Channel layout                           : L R C LFE Ls Rs
  42. Sampling rate                            : 48.0 kHz
  43. Frame rate                               : 31.250 FPS (1536 SPF)
  44. Bit depth                                : 16 bits
  45. Compression mode                         : Lossy
  46. Stream size                              : 231 MiB (7%)
  47. Title                                    : The.Terrible.Two.2018.1080p.WEB-DL.DD5.1.H264-FGT
  48. Language                                 : English
  49. Service kind                             : Complete Main
  50. Default                                  : Yes
  51. Forced                                   : No

  52. Text
  53. ID                                       : 3
  54. Format                                   : UTF-8
  55. Codec ID                                 : S_TEXT/UTF8
  56. Codec ID/Info                            : UTF-8 Plain Text
  57. Duration                                 : 1 h 18 min
  58. Bit rate                                 : 46 b/s
  59. Count of elements                        : 928
  60. Stream size                              : 26.9 KiB (0%)
  61. Language                                 : English
  62. Default                                  : Yes
  63. Forced                                   : No

  64. Menu
  65. 00:00:00.000                             : en:1
  66. 00:12:16.000                             : en:2
  67. 00:21:54.000                             : en:3
  68. 00:32:52.000                             : en:4
  69. 00:47:33.000                             : en:5
  70. 00:57:25.000                             : en:6
  71. 01:07:18.000                             : en:7
  72. 01:19:37.000                             : en:8
复制代码

可怕的两个/天牲一对 The.Terrible.Two.2018.1080p.WEB-DL.DD5.1.H264-FGT 3.30GB-2.png 可怕的两个/天牲一对 The.Terrible.Two.2018.1080p.WEB-DL.DD5.1.H264-FGT 3.30GB-3.png 可怕的两个/天牲一对 The.Terrible.Two.2018.1080p.WEB-DL.DD5.1.H264-FGT 3.30GB-4.png






回复

使用道具 举报

懒得打字嘛,点击右侧快捷回复 【右侧内容,后台自定义】
您需要登录后才可以回帖 登录 | 立即加入

本版积分规则

Archiver|小黑屋| 蓝光电影网 |网站地图

Copyright © 2021 Comsenz Inc. Powered by 蓝光电影网

蓝光电影网

本站内容由用户自主分享和转载自互联网,转载目的在于传递更多信息,并不代表本网赞同其观点和对其真实性负责。

如有侵权、违反国家法律政策行为,请联系我们,我们会第一时间及时清除和处理!

举报反馈邮箱:[email protected]

快速回复 返回顶部 返回列表