找回密码

蓝光电影网

查看: 203|回复: 0

[惊悚] 洛基恐怖秀 The.Rocky.Horror.Picture.Show.Lets.Do.the.Time.Warp.Again.2016.1080p.WEB-DL.H264.DD5.1-FGT 3.41GB

[复制链接]
蓝光币
382
发表于 2020-1-22 15:05:50 | 显示全部楼层 |阅读模式
洛基可骇秀 The.Rocky.Horror.Picture.Show.Lets.Do.the.Time.Warp.Again.2016.1080p.WEB-DL.H264.DD5.1-FGT 3.41GB-1.png

译  名 洛基可骇秀 / The Rocky Horror Picture Show
片  名 The Rocky Horror Picture Show: Let's Do the Time Warp Again
年  代 2016
产  地 美国 / 英国
类  别 惊悚 / 可骇 / 歌舞
语  言 英语
上映日期 2016-10-20
IMDb评分  4.2/10 from 6482 users
IMDb链接  https://www.imdb.com/title/tt1267299
豆瓣评分 5.1/10 from 122 users
豆瓣链接 https://movie.douban.com/subject/3157593/
集  数 1
片  长 88分钟
导  演 肯尼·奥特加 Kenny Ortega
编  剧 理查德·奥布里恩 Richard O'Brien / 吉姆·沙曼 Jim Sharman
主  演 拉弗恩·考克斯 Laverne Cox
       维多利亚·嘉丝蒂 Victoria Justice
       瑞恩·麦卡坦 Ryan McCartan
       亚当·兰伯特 Adam Lambert
       利夫·卡内 Reeve Carney
       斯塔兹·奈尔 Staz Nair
       蒂姆·克里 Tim Curry
       安娜莱吉·阿什福特 Annaleigh Ashford
       克里斯蒂娜·米利安 Christina Milian


标  签 笑剧 | 美国电影 | 美国 | 音乐剧 | 美剧 | 可骇 | Musical | 2016

简  介  

  Victoria Justice和Ryan McCartan先前已参演Fox重制的《洛基可骇秀 Rocky Horror Picture Show》的两小时电视剧版,饰演年轻的男女配角Janet和Brad。本剧按照1975年二十世纪福克斯的一部另类典范作品 重制, Re eve Carney和Staz Nair出演该剧。本剧估计在2016年春季档与观众碰头。
  Adam Lambert饰演在电影中也有出过场的Eddie,是个酷爱摇滚的前送货员,在片中驾着摩托车来到Dr. Frank-N-Furte的派对。电影版由Meat Loaf饰演这脚色。
  本剧报告了甜心宝贝Janet Weiss (Justice饰)和Brad Majors (McCartan饰),无意中发现了一个名叫Dr. Frank-N-Furter(Laverne Cox饰)的诡异老宅;Dr. Frank-N-Furter是本性别不明的轻佻的外星疯狂科学家,他正在举行一年一度的特兰西瓦尼亚科学大会,向人们展现“Rocky Horror”(Nair饰)——一个Frank按照自己的欲想缔造的一个帅气健美而富有吸引力的汉子——的诞生。Carney将饰演Riff Raff,他是Dr. Frank-N-Furter一个忠厚的家丁。
  Annaleigh Ashford饰演Columbia,住在城堡里的侍女﹑是个狂热﹑爱争持的跟随者。该脚色在电影由Nell Campbell饰演。Christina Milian饰演城堡里的女佣Magenta,电影版该角由Patricia Quinn饰演。Ben Vereen饰演Everett Scott博士,在电影版中由Jonathan Adams饰演。他是Eddie的舅舅,是个已经当科学教师的天赋,现在为政府观察UFO。
  Lou Adler、Gail Berman和Kenny Ortega将担任本剧的履行建造人。
  1. Video
  2. ID                                       : 1
  3. Format                                   : AVC
  4. Format/Info                              : Advanced Video Codec
  5. Format profile                           : [email protected]
  6. Format settings                          : CABAC / 4 Ref Frames
  7. Format settings, CABAC                   : Yes
  8. Format settings, Reference frames        : 4 frames
  9. Codec ID                                 : V_MPEG4/ISO/AVC
  10. Duration                                 : 1 h 28 min
  11. Bit rate                                 : 5 028 kb/s
  12. Width                                    : 1 920 pixels
  13. Height                                   : 1 080 pixels
  14. Display aspect ratio                     : 16:9
  15. Frame rate mode                          : Constant
  16. Frame rate                               : 23.976 (24000/1001) FPS
  17. Color space                              : YUV
  18. Chroma subsampling                       : 4:2:0
  19. Bit depth                                : 8 bits
  20. Scan type                                : Progressive
  21. Bits/(Pixel*Frame)                       : 0.101
  22. Stream size                              : 3.11 GiB (91%)
  23. Title                                    : The.Rocky.Horror.Picture.Show.Lets.Do.the.Time.Warp.Again.2016.1080p.WEB-DL.H264.DD5.1-FGT
  24. Language                                 : English
  25. Default                                  : Yes
  26. Forced                                   : No
  27. Color range                              : Limited
  28. Color primaries                          : BT.709
  29. Transfer characteristics                 : BT.709
  30. Matrix coefficients                      : BT.709

  31. Audio
  32. ID                                       : 2
  33. Format                                   : AC-3
  34. Format/Info                              : Audio Coding 3
  35. Commercial name                          : Dolby Digital
  36. Codec ID                                 : A_AC3
  37. Duration                                 : 1 h 28 min
  38. Bit rate mode                            : Constant
  39. Bit rate                                 : 384 kb/s
  40. Channel(s)                               : 6 channels
  41. Channel layout                           : L R C LFE Ls Rs
  42. Sampling rate                            : 48.0 kHz
  43. Frame rate                               : 31.250 FPS (1536 SPF)
  44. Bit depth                                : 16 bits
  45. Compression mode                         : Lossy
  46. Stream size                              : 243 MiB (7%)
  47. Title                                    : The.Rocky.Horror.Picture.Show.Lets.Do.the.Time.Warp.Again.2016.1080p.WEB-DL.H264.DD5.1-FGT
  48. Language                                 : English
  49. Service kind                             : Complete Main
  50. Default                                  : Yes
  51. Forced                                   : No
复制代码

洛基可骇秀 The.Rocky.Horror.Picture.Show.Lets.Do.the.Time.Warp.Again.2016.1080p.WEB-DL.H264.DD5.1-FGT 3.41GB-2.png 洛基可骇秀 The.Rocky.Horror.Picture.Show.Lets.Do.the.Time.Warp.Again.2016.1080p.WEB-DL.H264.DD5.1-FGT 3.41GB-3.png 洛基可骇秀 The.Rocky.Horror.Picture.Show.Lets.Do.the.Time.Warp.Again.2016.1080p.WEB-DL.H264.DD5.1-FGT 3.41GB-4.png 洛基可骇秀 The.Rocky.Horror.Picture.Show.Lets.Do.the.Time.Warp.Again.2016.1080p.WEB-DL.H264.DD5.1-FGT 3.41GB-1.png 洛基可骇秀 The.Rocky.Horror.Picture.Show.Lets.Do.the.Time.Warp.Again.2016.1080p.WEB-DL.H264.DD5.1-FGT 3.41GB-6.png 洛基可骇秀 The.Rocky.Horror.Picture.Show.Lets.Do.the.Time.Warp.Again.2016.1080p.WEB-DL.H264.DD5.1-FGT 3.41GB-7.png






回复

使用道具 举报

懒得打字嘛,点击右侧快捷回复 【右侧内容,后台自定义】
您需要登录后才可以回帖 登录 | 立即加入

本版积分规则

Archiver|小黑屋| 蓝光电影网 |网站地图

Copyright © 2021 Comsenz Inc. Powered by 蓝光电影网

蓝光电影网

本站内容由用户自主分享和转载自互联网,转载目的在于传递更多信息,并不代表本网赞同其观点和对其真实性负责。

如有侵权、违反国家法律政策行为,请联系我们,我们会第一时间及时清除和处理!

举报反馈邮箱:[email protected]

快速回复 返回顶部 返回列表