找回密码

蓝光电影网

查看: 114|回复: 0

[剧情] 唐人街1871/玉坠 The.Jade.Pendant.2017.1080p.WEB-DL.DD5.1.H264-FGT 3.71GB

[复制链接]
蓝光币
382
发表于 2020-1-22 15:07:01 | 显示全部楼层 |阅读模式
唐人街1871/玉坠 The.Jade.Pendant.2017.1080p.WEB-DL.DD5.1.H264-FGT 3.71GB-1.png

译  名 唐人街1871 / 玉坠 / 金山
片  名 The Jade Pendant
年  代 2017
产  地 中国香港 / 美国
类  别 剧情 / 历史 / 西部
语  言 英语 / 汉语普通话
上映日期 2017-10-19(波士顿亚裔电影节) / 2017-11-03(美国)
IMDb评分  5.4/10 from 181 users
IMDb链接  https://www.imdb.com/title/tt5156532
豆瓣评分 4.8/10 from 498 users
豆瓣链接 https://movie.douban.com/subject/26812861/
片  长 106分钟
导  演 梁普智 Po-Chih Leong
编  剧 David Assael / Scott M. Rosenfelt / L.P. Leung
主  演 高以翔 Godfrey Gao
       李成敏 Clara Lee
       马志 Tzi Ma
       小马克·布恩 Mark Boone Junior
       王盛德 Russell Wong
       周采芹 Tsai Chin
       唐辰瀛 Chen Tang
       吴冬妮 Nina Wu
       布莱恩·杨 Brian Yang
       杨佩里 Perry Yung
       马修斯·齐夫 Matthew Ziff
       杰米·哈里斯 Jamie Harris
       葛晓洁 Christine Ko


标  签 高以翔 | 历史 | 华人 | 美国 | 李成敏 | 2017 | 洛杉矶 | 剧情

简  介  

  影片布景设定在1871年洛杉矶中国城大屠杀的悲凉历史事务。透过一对华裔情侣扣民气弦的恋爱故事,反应了种族偏见和对移民的不和睦,以及连带酿成的社会抵触。
  1. Video
  2. ID                                       : 1
  3. Format                                   : AVC
  4. Format/Info                              : Advanced Video Codec
  5. Format profile                           : [email protected]
  6. Format settings                          : CABAC / 5 Ref Frames
  7. Format settings, CABAC                   : Yes
  8. Format settings, Reference frames        : 5 frames
  9. Codec ID                                 : V_MPEG4/ISO/AVC
  10. Duration                                 : 1 h 46 min
  11. Bit rate                                 : 4 584 kb/s
  12. Width                                    : 1 916 pixels
  13. Height                                   : 796 pixels
  14. Display aspect ratio                     : 2.40:1
  15. Frame rate mode                          : Constant
  16. Frame rate                               : 23.976 (23976/1000) FPS
  17. Color space                              : YUV
  18. Chroma subsampling                       : 4:2:0
  19. Bit depth                                : 8 bits
  20. Scan type                                : Progressive
  21. Bits/(Pixel*Frame)                       : 0.125
  22. Stream size                              : 3.42 GiB (92%)
  23. Title                                    : The.Jade.Pendant.2017.1080p.WEB-DL.DD5.1.H.264-FGT
  24. Language                                 : English
  25. Default                                  : Yes
  26. Forced                                   : No
  27. Color range                              : Limited
  28. Color primaries                          : BT.709
  29. Transfer characteristics                 : BT.709
  30. Matrix coefficients                      : BT.709

  31. Audio
  32. ID                                       : 2
  33. Format                                   : AC-3
  34. Format/Info                              : Audio Coding 3
  35. Commercial name                          : Dolby Digital
  36. Codec ID                                 : A_AC3
  37. Duration                                 : 1 h 46 min
  38. Bit rate mode                            : Constant
  39. Bit rate                                 : 384 kb/s
  40. Channel(s)                               : 6 channels
  41. Channel layout                           : L R C LFE Ls Rs
  42. Sampling rate                            : 48.0 kHz
  43. Frame rate                               : 31.250 FPS (1536 SPF)
  44. Bit depth                                : 16 bits
  45. Compression mode                         : Lossy
  46. Stream size                              : 293 MiB (8%)
  47. Title                                    : The.Jade.Pendant.2017.1080p.WEB-DL.DD5.1.H.264-FGT
  48. Language                                 : English
  49. Service kind                             : Complete Main
  50. Default                                  : Yes
  51. Forced                                   : No

  52. Text
  53. ID                                       : 3
  54. Format                                   : UTF-8
  55. Codec ID                                 : S_TEXT/UTF8
  56. Codec ID/Info                            : UTF-8 Plain Text
  57. Duration                                 : 1 h 42 min
  58. Bit rate                                 : 19 b/s
  59. Count of elements                        : 683
  60. Stream size                              : 15.0 KiB (0%)
  61. Language                                 : English
  62. Default                                  : Yes
  63. Forced                                   : No

  64. Menu
  65. 00:00:00.000                             : en:Chapter 1
  66. 00:14:11.142                             : en:Chapter 2
  67. 00:24:38.018                             : en:Chapter 3
  68. 00:42:06.775                             : en:Chapter 4
  69. 00:57:16.684                             : en:Chapter 5
  70. 01:07:44.478                             : en:Chapter 6
  71. 01:22:23.440                             : en:Chapter 7
  72. 01:39:56.826                             : en:Chapter 8
复制代码

唐人街1871/玉坠 The.Jade.Pendant.2017.1080p.WEB-DL.DD5.1.H264-FGT 3.71GB-2.png 唐人街1871/玉坠 The.Jade.Pendant.2017.1080p.WEB-DL.DD5.1.H264-FGT 3.71GB-3.png 唐人街1871/玉坠 The.Jade.Pendant.2017.1080p.WEB-DL.DD5.1.H264-FGT 3.71GB-4.png






回复

使用道具 举报

懒得打字嘛,点击右侧快捷回复 【右侧内容,后台自定义】
您需要登录后才可以回帖 登录 | 立即加入

本版积分规则

Archiver|小黑屋| 蓝光电影网 |网站地图

Copyright © 2021 Comsenz Inc. Powered by 蓝光电影网

蓝光电影网

本站内容由用户自主分享和转载自互联网,转载目的在于传递更多信息,并不代表本网赞同其观点和对其真实性负责。

如有侵权、违反国家法律政策行为,请联系我们,我们会第一时间及时清除和处理!

举报反馈邮箱:[email protected]

快速回复 返回顶部 返回列表