找回密码

蓝光电影网

查看: 116|回复: 0

[恐怖] 窗帘惊魂 The.Gateway.2015.1080p.WEB-DL.DD5.1.H264-FGT 2.56GB

[复制链接]
蓝光币
426
发表于 2020-1-22 15:07:40 | 显示全部楼层 |阅读模式
窗帘惊魂 The.Gateway.2015.1080p.WEB-DL.DD5.1.H264-FGT 2.56GB-1.png

译  名 窗帘惊魂
片  名 Curtain
年  代 2015
产  地 美国
类  别 可骇
语  言 英语
上映日期 2015-08-31(英国)
IMDb评分  4.7/10 from 446 users
IMDb链接  https://www.imdb.com/title/tt3118442
豆瓣评分 0/10 from 0 users
豆瓣链接 https://movie.douban.com/subject/26580230/
导  演 Jaron Henrie-McCrea
主  演 Danni Smith
       Tim Lueke
       Martin Monahan


标  签 可骇 | 英国 | 奥秘 | 电影2018 | 希奇

简  介  

  A burnt out nurse moves into a new apartment in search of a simpler life. But when her shower curtains begin to disappear through a mysterious portal she discovers there's no such thing as simple in this world, or any other.
  1. Video
  2. ID                                       : 1
  3. Format                                   : AVC
  4. Format/Info                              : Advanced Video Codec
  5. Format profile                           : [email protected]
  6. Format settings                          : CABAC / 4 Ref Frames
  7. Format settings, CABAC                   : Yes
  8. Format settings, Reference frames        : 4 frames
  9. Codec ID                                 : V_MPEG4/ISO/AVC
  10. Duration                                 : 1 h 13 min
  11. Bit rate                                 : 4 617 kb/s
  12. Width                                    : 1 920 pixels
  13. Height                                   : 816 pixels
  14. Display aspect ratio                     : 2.35:1
  15. Frame rate mode                          : Constant
  16. Frame rate                               : 23.976 (24000/1001) FPS
  17. Color space                              : YUV
  18. Chroma subsampling                       : 4:2:0
  19. Bit depth                                : 8 bits
  20. Scan type                                : Progressive
  21. Bits/(Pixel*Frame)                       : 0.123
  22. Stream size                              : 2.36 GiB (92%)
  23. Title                                    : The.Gateway.2015.1080p.WEB-DL.DD5.1.H.264-FGT
  24. Default                                  : Yes
  25. Forced                                   : No
  26. Color range                              : Limited
  27. Color primaries                          : BT.709
  28. Transfer characteristics                 : BT.709
  29. Matrix coefficients                      : BT.709

  30. Audio
  31. ID                                       : 2
  32. Format                                   : AC-3
  33. Format/Info                              : Audio Coding 3
  34. Commercial name                          : Dolby Digital
  35. Codec ID                                 : A_AC3
  36. Duration                                 : 1 h 13 min
  37. Bit rate mode                            : Constant
  38. Bit rate                                 : 384 kb/s
  39. Channel(s)                               : 6 channels
  40. Channel layout                           : L R C LFE Ls Rs
  41. Sampling rate                            : 44.1 kHz
  42. Frame rate                               : 28.711 FPS (1536 SPF)
  43. Bit depth                                : 16 bits
  44. Compression mode                         : Lossy
  45. Stream size                              : 201 MiB (8%)
  46. Title                                    : The.Gateway.2015.1080p.WEB-DL.DD5.1.H.264-FGT
  47. Language                                 : English
  48. Service kind                             : Complete Main
  49. Default                                  : Yes
  50. Forced                                   : No

  51. Text
  52. ID                                       : 3
  53. Format                                   : UTF-8
  54. Codec ID                                 : S_TEXT/UTF8
  55. Codec ID/Info                            : UTF-8 Plain Text
  56. Duration                                 : 1 h 11 min
  57. Bit rate                                 : 49 b/s
  58. Count of elements                        : 1000
  59. Stream size                              : 26.0 KiB (0%)
  60. Language                                 : English
  61. Default                                  : Yes
  62. Forced                                   : No
复制代码

窗帘惊魂 The.Gateway.2015.1080p.WEB-DL.DD5.1.H264-FGT 2.56GB-2.png 窗帘惊魂 The.Gateway.2015.1080p.WEB-DL.DD5.1.H264-FGT 2.56GB-3.png 窗帘惊魂 The.Gateway.2015.1080p.WEB-DL.DD5.1.H264-FGT 2.56GB-4.png






回复

使用道具 举报

懒得打字嘛,点击右侧快捷回复 【右侧内容,后台自定义】
您需要登录后才可以回帖 登录 | 立即加入

本版积分规则

Archiver|小黑屋| 蓝光电影网 |网站地图

Copyright © 2021 Comsenz Inc. Powered by 蓝光电影网

蓝光电影网

本站内容由用户自主分享和转载自互联网,转载目的在于传递更多信息,并不代表本网赞同其观点和对其真实性负责。

如有侵权、违反国家法律政策行为,请联系我们,我们会第一时间及时清除和处理!

举报反馈邮箱:[email protected]

快速回复 返回顶部 返回列表