找回密码

蓝光电影网

查看: 99|回复: 0

[惊悚] 刽子手 The.Executioners.2017.1080p.WEB-DL.DD5.1.H264-FGT 3.21GB

[复制链接]
蓝光币
386
发表于 2020-1-22 15:08:55 | 显示全部楼层 |阅读模式
刽子手 The.Executioners.2017.1080p.WEB-DL.DD5.1.H264-FGT 3.21GB-1.png

译  名 刽子手
片  名 The Executioners
年  代 2017
产  地 美国
类  别 惊悚 / 可骇
语  言 英语
上映日期 2017-10-31(美国)
IMDb评分  3.8/10 from 473 users
IMDb链接  https://www.imdb.com/title/tt6185998
豆瓣评分 3.8/10 from 110 users
豆瓣链接 https://movie.douban.com/subject/27166110/
片  长 92分钟
导  演 Giorgio Serafini
编  剧 Giorgio Serafini
主  演 娜塔莉·伯恩 Natalie Burn
       杰玛·达兰德 Jemma Dallender
       Rachel Rosenstein
       Justin Fischer


标  签 惊悚 | 美国 | 可骇 | 2017 | 美国电影 | 情色 | 烂片 | 青春

简  介  

  When four female friends go on a retreat to a secluded lakeside cabin, they soon realise they’re not alone. Masked intruders try to take them hostage, but as they fight back, the friends get a taste for something more than the will to survive. Will their fate be as victim or executioner?
  1. Video
  2. ID                                       : 1
  3. Format                                   : AVC
  4. Format/Info                              : Advanced Video Codec
  5. Format profile                           : [email protected]
  6. Format settings                          : CABAC / 5 Ref Frames
  7. Format settings, CABAC                   : Yes
  8. Format settings, Reference frames        : 5 frames
  9. Codec ID                                 : V_MPEG4/ISO/AVC
  10. Duration                                 : 1 h 32 min
  11. Bit rate                                 : 4 593 kb/s
  12. Width                                    : 1 908 pixels
  13. Height                                   : 808 pixels
  14. Display aspect ratio                     : 2.35:1
  15. Frame rate mode                          : Constant
  16. Frame rate                               : 23.976 (24000/1001) FPS
  17. Color space                              : YUV
  18. Chroma subsampling                       : 4:2:0
  19. Bit depth                                : 8 bits
  20. Scan type                                : Progressive
  21. Bits/(Pixel*Frame)                       : 0.124
  22. Stream size                              : 2.96 GiB (92%)
  23. Title                                    : The.Executioners.2017.1080p.WEB-DL.DD5.1.H.264-FGT
  24. Language                                 : English
  25. Default                                  : Yes
  26. Forced                                   : No
  27. Color range                              : Limited
  28. Color primaries                          : BT.709
  29. Transfer characteristics                 : BT.709
  30. Matrix coefficients                      : BT.709

  31. Audio
  32. ID                                       : 2
  33. Format                                   : AC-3
  34. Format/Info                              : Audio Coding 3
  35. Commercial name                          : Dolby Digital
  36. Codec ID                                 : A_AC3
  37. Duration                                 : 1 h 32 min
  38. Bit rate mode                            : Constant
  39. Bit rate                                 : 384 kb/s
  40. Channel(s)                               : 6 channels
  41. Channel layout                           : L R C LFE Ls Rs
  42. Sampling rate                            : 48.0 kHz
  43. Frame rate                               : 31.250 FPS (1536 SPF)
  44. Bit depth                                : 16 bits
  45. Compression mode                         : Lossy
  46. Stream size                              : 254 MiB (8%)
  47. Title                                    : The.Executioners.2017.1080p.WEB-DL.DD5.1.H.264-FGT
  48. Language                                 : English
  49. Service kind                             : Complete Main
  50. Default                                  : Yes
  51. Forced                                   : No

  52. Text
  53. ID                                       : 3
  54. Format                                   : UTF-8
  55. Codec ID                                 : S_TEXT/UTF8
  56. Codec ID/Info                            : UTF-8 Plain Text
  57. Duration                                 : 1 h 30 min
  58. Bit rate                                 : 33 b/s
  59. Count of elements                        : 1001
  60. Stream size                              : 22.4 KiB (0%)
  61. Default                                  : Yes
  62. Forced                                   : No

  63. Menu
  64. 00:00:00.000                             : en:1
  65. 00:03:30.000                             : en:2
  66. 00:14:10.000                             : en:3
  67. 00:23:56.000                             : en:4
  68. 00:35:23.000                             : en:5
  69. 00:43:36.000                             : en:6
  70. 00:53:30.000                             : en:7
  71. 01:04:48.000                             : en:8
  72. 01:15:33.000                             : en:9
  73. 01:29:40.000                             : en:10
复制代码

刽子手 The.Executioners.2017.1080p.WEB-DL.DD5.1.H264-FGT 3.21GB-2.png 刽子手 The.Executioners.2017.1080p.WEB-DL.DD5.1.H264-FGT 3.21GB-3.png 刽子手 The.Executioners.2017.1080p.WEB-DL.DD5.1.H264-FGT 3.21GB-4.png






回复

使用道具 举报

懒得打字嘛,点击右侧快捷回复 【右侧内容,后台自定义】
您需要登录后才可以回帖 登录 | 立即加入

本版积分规则

Archiver|小黑屋| 蓝光电影网 |网站地图

Copyright © 2021 Comsenz Inc. Powered by 蓝光电影网

蓝光电影网

本站内容由用户自主分享和转载自互联网,转载目的在于传递更多信息,并不代表本网赞同其观点和对其真实性负责。

如有侵权、违反国家法律政策行为,请联系我们,我们会第一时间及时清除和处理!

举报反馈邮箱:[email protected]

快速回复 返回顶部 返回列表