找回密码

蓝光电影网

查看: 71|回复: 0

[剧情] 尘埃沙暴 The.Dust.Storm.2016.1080p.WEB-DL.DD5.1.H264-FGT 3.25GB

[复制链接]
蓝光币
382
发表于 2020-1-22 15:09:50 | 显示全部楼层 |阅读模式
灰尘沙暴 The.Dust.Storm.2016.1080p.WEB-DL.DD5.1.H264-FGT 3.25GB-1.png

译  名 灰尘沙暴
片  名 The Dust Storm
年  代 2016
产  地 美国
类  别 剧情 / 恋爱 / 歌舞
语  言 英语
上映日期 2015
IMDb评分  5.7/10 from 447 users
IMDb链接  https://www.imdb.com/title/tt3854372
豆瓣评分 0/10 from 0 users
豆瓣链接 https://movie.douban.com/subject/26617313/
片  长 96分钟
导  演 Anthony Baldino / Ryan Lacen
编  剧 Ryan Lacen
主  演 科林·奥多霍诺 Colin O'Donoghue
       克里斯汀·古托斯基 Kristen Gutoskie
       克里斯·卡马克 Chris Carmack
       吉姆·奥希尔 Jim O'Heir
       J.T. Hodges
       Valerie Jane Parker
       Jessejames Locorriere
       科里·斯科特·艾伦 Cory Scott Allen
       Allee Sutton Hethcoat
       Kysa Otis
       Shawn Hawkins
       Jesse Brand
       Blake Rice Kirkland
       Melissa Nyenhuis
       Ronnie Scissom


标  签 看帅哥来的 | ColinO'Donoghue | 2016

简  介  

  On a business trip to Nashville, Brennan finds himself reunited with the "Girl" who had previously broken his heart. Now, for one weekend in the city's music scene, a past and present romance will be reborn and challenged.
  1. Video
  2. ID                                       : 1
  3. Format                                   : AVC
  4. Format/Info                              : Advanced Video Codec
  5. Format profile                           : [email protected]
  6. Format settings                          : CABAC / 5 Ref Frames
  7. Format settings, CABAC                   : Yes
  8. Format settings, Reference frames        : 5 frames
  9. Codec ID                                 : V_MPEG4/ISO/AVC
  10. Duration                                 : 1 h 34 min
  11. Bit rate                                 : 4 534 kb/s
  12. Width                                    : 1 920 pixels
  13. Height                                   : 796 pixels
  14. Display aspect ratio                     : 2.40:1
  15. Frame rate mode                          : Constant
  16. Frame rate                               : 23.976 (23976/1000) FPS
  17. Color space                              : YUV
  18. Chroma subsampling                       : 4:2:0
  19. Bit depth                                : 8 bits
  20. Scan type                                : Progressive
  21. Bits/(Pixel*Frame)                       : 0.124
  22. Stream size                              : 2.99 GiB (92%)
  23. Title                                    : The.Dust.Storm.2016.1080p.WEB-DL.DD5.1.H.264-FGT
  24. Language                                 : English
  25. Default                                  : Yes
  26. Forced                                   : No
  27. Color range                              : Limited
  28. Color primaries                          : BT.709
  29. Transfer characteristics                 : BT.709
  30. Matrix coefficients                      : BT.709

  31. Audio
  32. ID                                       : 2
  33. Format                                   : AC-3
  34. Format/Info                              : Audio Coding 3
  35. Commercial name                          : Dolby Digital
  36. Codec ID                                 : A_AC3
  37. Duration                                 : 1 h 34 min
  38. Bit rate mode                            : Constant
  39. Bit rate                                 : 384 kb/s
  40. Channel(s)                               : 6 channels
  41. Channel layout                           : L R C LFE Ls Rs
  42. Sampling rate                            : 48.0 kHz
  43. Frame rate                               : 31.250 FPS (1536 SPF)
  44. Bit depth                                : 16 bits
  45. Compression mode                         : Lossy
  46. Stream size                              : 260 MiB (8%)
  47. Title                                    : The.Dust.Storm.2016.1080p.WEB-DL.DD5.1.H.264-FGT
  48. Language                                 : English
  49. Service kind                             : Complete Main
  50. Default                                  : Yes
  51. Forced                                   : No

  52. Text
  53. ID                                       : 3
  54. Format                                   : UTF-8
  55. Codec ID                                 : S_TEXT/UTF8
  56. Codec ID/Info                            : UTF-8 Plain Text
  57. Duration                                 : 1 h 34 min
  58. Bit rate                                 : 50 b/s
  59. Count of elements                        : 1228
  60. Stream size                              : 34.6 KiB (0%)
  61. Language                                 : English
  62. Default                                  : No
  63. Forced                                   : No

  64. Menu
  65. 00:00:00.000                             : en:1
  66. 00:11:48.000                             : en:2
  67. 00:20:38.000                             : en:3
  68. 00:31:19.000                             : en:4
  69. 00:45:36.000                             : en:5
  70. 00:53:32.000                             : en:6
  71. 01:01:59.000                             : en:7
  72. 01:11:28.000                             : en:8
  73. 01:20:54.000                             : en:9
  74. 01:29:38.000                             : en:10
复制代码

灰尘沙暴 The.Dust.Storm.2016.1080p.WEB-DL.DD5.1.H264-FGT 3.25GB-2.png 灰尘沙暴 The.Dust.Storm.2016.1080p.WEB-DL.DD5.1.H264-FGT 3.25GB-3.png 灰尘沙暴 The.Dust.Storm.2016.1080p.WEB-DL.DD5.1.H264-FGT 3.25GB-4.png






回复

使用道具 举报

懒得打字嘛,点击右侧快捷回复 【右侧内容,后台自定义】
您需要登录后才可以回帖 登录 | 立即加入

本版积分规则

Archiver|小黑屋| 蓝光电影网 |网站地图

Copyright © 2021 Comsenz Inc. Powered by 蓝光电影网

蓝光电影网

本站内容由用户自主分享和转载自互联网,转载目的在于传递更多信息,并不代表本网赞同其观点和对其真实性负责。

如有侵权、违反国家法律政策行为,请联系我们,我们会第一时间及时清除和处理!

举报反馈邮箱:[email protected]

快速回复 返回顶部 返回列表