找回密码

蓝光电影网

查看: 74|回复: 0

[恐怖] 藏尸房 The.Charnel.House.2016.1080p.WEB-DL.DD5.1.H264-FGT 3.20GB

[复制链接]
蓝光币
386
发表于 2020-1-22 15:10:52 | 显示全部楼层 |阅读模式
藏尸房 The.Charnel.House.2016.1080p.WEB-DL.DD5.1.H264-FGT 3.20GB-1.png

译  名 藏尸房
片  名 The Charnel House
年  代 2016
产  地 美国
类  别 可骇
语  言 英语
上映日期 2016-11-04
IMDb评分  4.4/10 from 1099 users
IMDb链接  https://www.imdb.com/title/tt4633662
豆瓣评分 4.8/10 from 83 users
豆瓣链接 https://movie.douban.com/subject/26909549/
片  长 90分钟
导  演 Craig Moss
编  剧 Emanuel Isler / Chad Israel
主  演 娜丁·维拉兹盖兹 Nadine Velazquez
       Callum Blue
       Joe Keery


标  签 美国 | 惊悚 | 可骇 | 2016 | 电影 | 灵异 | 渣滓 | 剧情

简  介  

  一个烧毁很久的屠宰场现在已经成为了现代城市的新社区,但租户迁入后未几,就发现他们已被一个有30多年的黑暗奥秘所困扰和熬煎......
  1. Video
  2. ID                                       : 1
  3. Format                                   : AVC
  4. Format/Info                              : Advanced Video Codec
  5. Format profile                           : [email protected]
  6. Format settings                          : CABAC / 5 Ref Frames
  7. Format settings, CABAC                   : Yes
  8. Format settings, Reference frames        : 5 frames
  9. Codec ID                                 : V_MPEG4/ISO/AVC
  10. Duration                                 : 1 h 32 min
  11. Bit rate                                 : 4 466 kb/s
  12. Width                                    : 1 920 pixels
  13. Height                                   : 792 pixels
  14. Display aspect ratio                     : 2.40:1
  15. Frame rate mode                          : Constant
  16. Frame rate                               : 23.976 FPS
  17. Color space                              : YUV
  18. Chroma subsampling                       : 4:2:0
  19. Bit depth                                : 8 bits
  20. Scan type                                : Progressive
  21. Bits/(Pixel*Frame)                       : 0.122
  22. Stream size                              : 2.89 GiB (90%)
  23. Title                                    : The.Charnel.House.2016.1080p.WEB-DL.DD5.1.H264-FGT
  24. Language                                 : English
  25. Default                                  : Yes
  26. Forced                                   : No
  27. Color range                              : Limited
  28. Color primaries                          : BT.709
  29. Transfer characteristics                 : BT.709
  30. Matrix coefficients                      : BT.709

  31. Audio
  32. ID                                       : 2
  33. Format                                   : AC-3
  34. Format/Info                              : Audio Coding 3
  35. Commercial name                          : Dolby Digital
  36. Codec ID                                 : A_AC3
  37. Duration                                 : 1 h 32 min
  38. Bit rate mode                            : Constant
  39. Bit rate                                 : 384 kb/s
  40. Channel(s)                               : 6 channels
  41. Channel layout                           : L R C LFE Ls Rs
  42. Sampling rate                            : 48.0 kHz
  43. Frame rate                               : 31.250 FPS (1536 SPF)
  44. Bit depth                                : 16 bits
  45. Compression mode                         : Lossy
  46. Stream size                              : 254 MiB (8%)
  47. Title                                    : The.Charnel.House.2016.1080p.WEB-DL.DD5.1.H264-FGT
  48. Language                                 : English
  49. Service kind                             : Complete Main
  50. Default                                  : Yes
  51. Forced                                   : No

  52. Text
  53. ID                                       : 3
  54. Format                                   : UTF-8
  55. Codec ID                                 : S_TEXT/UTF8
  56. Codec ID/Info                            : UTF-8 Plain Text
  57. Language                                 : English
  58. Default                                  : Yes
  59. Forced                                   : No

  60. Menu
  61. 00:00:00.000                             : en:1
  62. 00:14:57.000                             : en:2
  63. 00:27:18.000                             : en:3
  64. 00:38:31.000                             : en:4
  65. 00:47:52.000                             : en:5
  66. 01:00:05.000                             : en:6
  67. 01:12:44.000                             : en:7
  68. 01:26:09.000                             : en:8
复制代码

藏尸房 The.Charnel.House.2016.1080p.WEB-DL.DD5.1.H264-FGT 3.20GB-2.png 藏尸房 The.Charnel.House.2016.1080p.WEB-DL.DD5.1.H264-FGT 3.20GB-3.png 藏尸房 The.Charnel.House.2016.1080p.WEB-DL.DD5.1.H264-FGT 3.20GB-4.png 藏尸房 The.Charnel.House.2016.1080p.WEB-DL.DD5.1.H264-FGT 3.20GB-1.png 藏尸房 The.Charnel.House.2016.1080p.WEB-DL.DD5.1.H264-FGT 3.20GB-6.png 藏尸房 The.Charnel.House.2016.1080p.WEB-DL.DD5.1.H264-FGT 3.20GB-7.png






回复

使用道具 举报

懒得打字嘛,点击右侧快捷回复 【右侧内容,后台自定义】
您需要登录后才可以回帖 登录 | 立即加入

本版积分规则

Archiver|小黑屋| 蓝光电影网 |网站地图

Copyright © 2021 Comsenz Inc. Powered by 蓝光电影网

蓝光电影网

本站内容由用户自主分享和转载自互联网,转载目的在于传递更多信息,并不代表本网赞同其观点和对其真实性负责。

如有侵权、违反国家法律政策行为,请联系我们,我们会第一时间及时清除和处理!

举报反馈邮箱:[email protected]

快速回复 返回顶部 返回列表