找回密码

蓝光电影网

查看: 267|回复: 1

[剧情] 洛瑞太太和她的儿子 Mrs.Lowry.and.Son.2019.1080p.BluRay.x264.DTS-HD.MA.5.1-FGT 6.95GB

[复制链接]
蓝光币
426
发表于 2020-1-22 15:12:16 | 显示全部楼层 |阅读模式
洛瑞太太和她的儿子 Mrs.Lowry.and.Son.2019.1080p.BluRay.x264.DTS-HD.MA.5.1-FGT 6.95GB-1.png

译  名 洛瑞太太和她的儿子 / Mrs Lowry and Son / Mrs. Lowry & Son / 洛瑞&火柴汉子(台)
片  名 Mrs Lowry & Son
年  代 2019
产  地 英国
类  别 剧情 / 列传 / 历史
语  言 英语
上映日期 2019-06-30(爱丁堡国际电影节) / 2019-08-30(英国)
IMDb评分  6.7/10 from 529 users
IMDb链接  https://www.imdb.com/title/tt7590074
豆瓣评分 7.6/10 from 116 users
豆瓣链接 https://movie.douban.com/subject/27664635/
片  长 91分钟
导  演 Adrian Noble
编  剧 Martyn Hesford
主  演 瓦妮莎·雷德格瑞夫 Vanessa Redgrave
       蒂莫西·斯波 Timothy Spall
       史蒂芬·洛德 Stephen Lord
       温迪·摩根 Wendy Morgan
       迈尔斯·基奥治 Michael Keogh
       Joanne Pearce
       David Schaal
       John Alan Roberts
       Jon Furlong
       Paul Bergquist
       Laurence Mills
       Kíla Lord Cassidy
       Rose Noble
       Jennifer Banks
       Giselle Cullinane


标  签 列传 | 英国 | 2019 | 藝術家 | 英國 | 2010s | 電影 | 蒂莫西·斯波

简  介  

  他那不可一世的控制狂母亲
  成就了二十世纪英国最巨大的画家之一
  L.S. 洛瑞是二十世纪英国最巨大的百姓画家之一,怪异的画风深受英国公众爱好。可是他的画作在早期却遭艺术批评家嘲笑为出自儿童之手,由于他笔下的人物,头大大,身材细细,就像一根根的火柴棒一样,被称为“火柴汉子”。虽然说洛瑞的母亲伊莉莎白密斯,平生都在阻扰他的艺术奇迹,可是洛瑞之所以可以成为优异的画家,却不能不归功于他的母亲。在他父亲归天以后,洛瑞负责照顾卧病在床的母亲,常常等到她入睡了才在阁楼起头作画,经心全意,甘之如饴。抑鬱寡欢的伊莉莎白总是叨叨念著她对儿子的不满与失望,洛瑞却终其平生都在追随著若何让母亲欢畅,他的生活与他的画作都渴望著母亲的认同。本片由著名皇家莎士比亚戏院前任总监亚德里安.诺布尔担任导演,找来坎城影帝提摩西司伯饰演这位巨大的画家,以及坎城影后凡妮莎蕾格烈芙饰演控制狂的母亲。两人精湛的演技,演活了这对嘲讽却又带诙谐的母子。
  「烟囱林立以及冒著黑烟的天空,火柴男人出现在原封不动的产业景观裡踽踽独行。」洛瑞的作品记载了后产业化的英国城市景观,以及人们的疏离,直到现在,仍能引发共鸣。他在晚年被皇家艺术学会及曼彻斯特学院延揽,作品曾以370万英镑高价售出。他屡次拒绝了英国辅弼颁布的勳章,并拒绝了勳爵的封号。
  1. Video
  2. ID                                       : 1
  3. Format                                   : AVC
  4. Format/Info                              : Advanced Video Codec
  5. Format profile                           : [email protected]
  6. Format settings                          : CABAC / 5 Ref Frames
  7. Format settings, CABAC                   : Yes
  8. Format settings, Reference frames        : 5 frames
  9. Codec ID                                 : V_MPEG4/ISO/AVC
  10. Duration                                 : 1 h 31 min
  11. Bit rate                                 : 8 744 kb/s
  12. Width                                    : 1 920 pixels
  13. Height                                   : 808 pixels
  14. Display aspect ratio                     : 2.40:1
  15. Frame rate mode                          : Constant
  16. Frame rate                               : 23.976 (24000/1001) FPS
  17. Color space                              : YUV
  18. Chroma subsampling                       : 4:2:0
  19. Bit depth                                : 8 bits
  20. Scan type                                : Progressive
  21. Bits/(Pixel*Frame)                       : 0.235
  22. Stream size                              : 5.59 GiB (80%)
  23. Title                                    : Mrs.Lowry.and.Son.2019.1080p.BluRay.x264.DTS-HD.MA.5.1-FGT
  24. Writing library                          : x264 core 159 r2991 1771b55
  25. Encoding settings                        : cabac=1 / ref=5 / deblock=1:-3:-3 / analyse=0x3:0x113 / me=umh / subme=8 / psy=1 / psy_rd=1.00:0.00 / mixed_ref=1 / me_range=32 / chroma_me=1 / trellis=2 / 8x8dct=1 / cqm=0 / deadzone=21,11 / fast_pskip=1 / chroma_qp_offset=-2 / threads=6 / lookahead_threads=1 / sliced_threads=0 / nr=0 / decimate=1 / interlaced=0 / bluray_compat=0 / constrained_intra=0 / bframes=3 / b_pyramid=2 / b_adapt=2 / b_bias=0 / direct=3 / weightb=1 / open_gop=0 / weightp=2 / keyint=240 / keyint_min=24 / scenecut=40 / intra_refresh=0 / rc_lookahead=50 / rc=2pass / mbtree=1 / bitrate=8744 / ratetol=1.0 / qcomp=0.60 / qpmin=0 / qpmax=69 / qpstep=4 / cplxblur=20.0 / qblur=0.5 / ip_ratio=1.40 / aq=3:0.80
  26. Default                                  : Yes
  27. Forced                                   : No

  28. Audio
  29. ID                                       : 2
  30. Format                                   : DTS XLL
  31. Format/Info                              : Digital Theater Systems
  32. Commercial name                          : DTS-HD Master Audio
  33. Codec ID                                 : A_DTS
  34. Duration                                 : 1 h 31 min
  35. Bit rate mode                            : Variable
  36. Bit rate                                 : 2 110 kb/s
  37. Channel(s)                               : 6 channels
  38. Channel layout                           : C L R Ls Rs LFE
  39. Sampling rate                            : 48.0 kHz
  40. Frame rate                               : 93.750 FPS (512 SPF)
  41. Bit depth                                : 16 bits
  42. Compression mode                         : Lossless
  43. Stream size                              : 1.35 GiB (19%)
  44. Title                                    : Mrs.Lowry.and.Son.2019.1080p.BluRay.x264.DTS-HD.MA.5.1-FGT
  45. Language                                 : English
  46. Default                                  : Yes
  47. Forced                                   : No

  48. Text #1
  49. ID                                       : 3
  50. Format                                   : UTF-8
  51. Codec ID                                 : S_TEXT/UTF8
  52. Codec ID/Info                            : UTF-8 Plain Text
  53. Duration                                 : 1 h 25 min
  54. Bit rate                                 : 46 b/s
  55. Count of elements                        : 922
  56. Stream size                              : 29.2 KiB (0%)
  57. Title                                    : English-SRT
  58. Language                                 : English
  59. Default                                  : Yes
  60. Forced                                   : No

  61. Text #2
  62. ID                                       : 4
  63. Format                                   : PGS
  64. Muxing mode                              : zlib
  65. Codec ID                                 : S_HDMV/PGS
  66. Codec ID/Info                            : Picture based subtitle format used on BDs/HD-DVDs
  67. Duration                                 : 1 h 25 min
  68. Bit rate                                 : 22.5 kb/s
  69. Count of elements                        : 1855
  70. Stream size                              : 13.9 MiB (0%)
  71. Title                                    : English-PGS
  72. Language                                 : English
  73. Default                                  : No
  74. Forced                                   : No

  75. Menu
  76. 00:00:00.000                             : en:Chapter 01
  77. 00:07:25.319                             : en:Chapter 02
  78. 00:14:57.313                             : en:Chapter 03
  79. 00:24:39.227                             : en:Chapter 04
  80. 00:31:45.778                             : en:Chapter 05
  81. 00:39:57.103                             : en:Chapter 06
  82. 00:48:13.307                             : en:Chapter 07
  83. 00:53:30.916                             : en:Chapter 08
  84. 00:59:17.595                             : en:Chapter 09
  85. 01:06:42.623                             : en:Chapter 10
  86. 01:14:29.423                             : en:Chapter 11
  87. 01:19:29.806                             : en:Chapter 12
  88. 01:26:21.551                             : en:Chapter 13
  89. 01:28:33.683                             : en:Chapter 14
复制代码

洛瑞太太和她的儿子 Mrs.Lowry.and.Son.2019.1080p.BluRay.x264.DTS-HD.MA.5.1-FGT 6.95GB-3.png 洛瑞太太和她的儿子 Mrs.Lowry.and.Son.2019.1080p.BluRay.x264.DTS-HD.MA.5.1-FGT 6.95GB-4.png






回复

使用道具 举报

懒得打字嘛,点击右侧快捷回复 【右侧内容,后台自定义】
您需要登录后才可以回帖 登录 | 立即加入

本版积分规则

Archiver|小黑屋| 蓝光电影网 |网站地图

Copyright © 2021 Comsenz Inc. Powered by 蓝光电影网

蓝光电影网

本站内容由用户自主分享和转载自互联网,转载目的在于传递更多信息,并不代表本网赞同其观点和对其真实性负责。

如有侵权、违反国家法律政策行为,请联系我们,我们会第一时间及时清除和处理!

举报反馈邮箱:[email protected]

快速回复 返回顶部 返回列表