找回密码

蓝光电影网

查看: 363|回复: 1

[喜剧] 提高音量!我根本听不懂你在唱什么!!/大声点笨蛋!完全不知道你在唱什么 LOUDER.Cant.Hear.What.Youre.Singin.Wimp.2018.JAPANESE.1080p.BluRay.x264.DTS-iKiW 9.75GB

[复制链接]
蓝光币
426
发表于 2020-1-22 15:20:58 | 显示全部楼层 |阅读模式
进步音量!我底子听不懂你在唱什么!!/高声点笨蛋!完全不晓得你在唱什么 LOUDER.Cant.Hear.What.Youre.Singin.Wimp.2018.JAPANESE.1080p.BluRay.x264.DTS-iKiW 9.75GB-1.png

译  名 进步音量!我底子听不懂你在唱什么!! / 高声点笨蛋!完全不晓得你在唱什么(台)
片  名 音量を上げろタコ!なに歌ってんのか全然わかんねぇんだよ!!
年  代 2018
产  地 日本
类  别 笑剧
语  言 日语
上映日期 2018-10-12(日本)
IMDb评分  5.3/10 from 45 users
IMDb链接  https://www.imdb.com/title/tt7493810
豆瓣评分 5.2/10 from 494 users
豆瓣链接 https://movie.douban.com/subject/27168152/
片  长 106分钟
导  演 三木聪 Miki Satoshi
编  剧 三木聪 Miki Satoshi
主  演 阿部隆史 Sadao Abe
       吉冈里帆 Riho Yoshioka
       千叶雄大 Yudai Chiba
       麻生久美子 Kumiko Aso
       小峠英二 Eiji Kotouge
       片山友希 Yuki Katayama
       中村优子 Y?ko Nakamura
       池津祥子 Shoko Ikezu
       森下能幸 Yoshiyuki Morishita
       岩松了 Ry? Iwamatsu
       布施绘里 Eri Fuse
       田中哲司 Tetsushi Tanaka
       松尾铃木 Suzuki Matsuo


标  签 日本 | 2018 | 音乐 | 笑剧 | 映画 | 摇滚 | 剧情 | 脱力系

简  介  

  阿部隆史&吉冈美帆将共演三木聪最新摇滚笑剧映画「音量を上げろタコ!なに歌ってんのか全然わかんねぇんだよ!!」,吉冈里帆将首度表露歌声。
  电影将于2018年公映。
  1. Video
  2. ID                                       : 1
  3. Format                                   : AVC
  4. Format/Info                              : Advanced Video Codec
  5. Format profile                           : [email protected]
  6. Format settings                          : CABAC / 5 Ref Frames
  7. Format settings, CABAC                   : Yes
  8. Format settings, Reference frames        : 5 frames
  9. Codec ID                                 : V_MPEG4/ISO/AVC
  10. Duration                                 : 1 h 46 min
  11. Bit rate                                 : 12.3 Mb/s
  12. Width                                    : 1 920 pixels
  13. Height                                   : 804 pixels
  14. Display aspect ratio                     : 2.40:1
  15. Frame rate mode                          : Constant
  16. Frame rate                               : 23.976 (24000/1001) FPS
  17. Color space                              : YUV
  18. Chroma subsampling                       : 4:2:0
  19. Bit depth                                : 8 bits
  20. Scan type                                : Progressive
  21. Bits/(Pixel*Frame)                       : 0.333
  22. Stream size                              : 9.18 GiB (94%)
  23. Writing library                          : x264 core 129 r2245+704+36 8e61944 tMod+MixAQ [[email protected]:2:0 X86_64]
  24. Encoding settings                        : cabac=1 / ref=5 / deblock=1:-1:-1 / analyse=0x3:0x133 / me=umh / subme=11 / psy=1 / fade_compensate=0.00 / psy_rd=1.05:0.10 / mixed_ref=1 / me_range=64 / chroma_me=1 / trellis=2 / 8x8dct=1 / cqm=0 / deadzone=21,11 / fast_pskip=0 / chroma_qp_offset=-3 / threads=18 / lookahead_threads=3 / sliced_threads=0 / nr=0 / decimate=0 / interlaced=0 / bluray_compat=0 / constrained_intra=0 / fgo=0 / bframes=10 / b_pyramid=2 / b_adapt=2 / b_bias=0 / direct=3 / weightb=1 / open_gop=0 / weightp=2 / keyint=250 / keyint_min=23 / scenecut=40 / intra_refresh=0 / rc=2pass / mbtree=0 / bitrate=12328 / ratetol=1.0 / qcomp=0.70 / qpmin=0 / qpmax=69 / qpstep=4 / cplxblur=20.0 / qblur=0.5 / ip_ratio=1.40 / pb_ratio=1.30 / aq=1 / aq-strength=0.85 / aq-sensitivity=10.00 / aq-ifactor=1.00 / aq-pfactor=1.00 / aq-bfactor=1.00 / aq2=0
  25. Language                                 : Japanese
  26. Default                                  : Yes
  27. Forced                                   : No

  28. Audio
  29. ID                                       : 2
  30. Format                                   : DTS
  31. Format/Info                              : Digital Theater Systems
  32. Codec ID                                 : A_DTS
  33. Duration                                 : 1 h 46 min
  34. Bit rate mode                            : Constant
  35. Bit rate                                 : 768 kb/s
  36. Channel(s)                               : 6 channels
  37. Channel layout                           : C L R Ls Rs LFE
  38. Sampling rate                            : 48.0 kHz
  39. Frame rate                               : 93.750 FPS (512 SPF)
  40. Bit depth                                : 24 bits
  41. Compression mode                         : Lossy
  42. Stream size                              : 586 MiB (6%)
  43. Language                                 : Japanese
  44. Default                                  : Yes
  45. Forced                                   : No

  46. Text #1
  47. ID                                       : 3
  48. Format                                   : UTF-8
  49. Codec ID                                 : S_TEXT/UTF8
  50. Codec ID/Info                            : UTF-8 Plain Text
  51. Duration                                 : 1 h 45 min
  52. Bit rate                                 : 47 b/s
  53. Count of elements                        : 1330
  54. Stream size                              : 36.8 KiB (0%)
  55. Language                                 : English
  56. Default                                  : Yes
  57. Forced                                   : No

  58. Text #2
  59. ID                                       : 4
  60. Format                                   : UTF-8
  61. Codec ID                                 : S_TEXT/UTF8
  62. Codec ID/Info                            : UTF-8 Plain Text
  63. Duration                                 : 1 h 43 min
  64. Bit rate                                 : 34 b/s
  65. Count of elements                        : 1082
  66. Stream size                              : 26.0 KiB (0%)
  67. Title                                    : Simplified
  68. Language                                 : Chinese
  69. Default                                  : No
  70. Forced                                   : No

  71. Text #3
  72. ID                                       : 5
  73. Format                                   : UTF-8
  74. Codec ID                                 : S_TEXT/UTF8
  75. Codec ID/Info                            : UTF-8 Plain Text
  76. Duration                                 : 1 h 43 min
  77. Bit rate                                 : 34 b/s
  78. Count of elements                        : 1082
  79. Stream size                              : 26.0 KiB (0%)
  80. Title                                    : Traditional
  81. Language                                 : Chinese
  82. Default                                  : No
  83. Forced                                   : No

  84. Menu
  85. 00:00:00.000                             : en:第 01 章
  86. 00:09:37.410                             : en:第 02 章
  87. 00:14:49.138                             : en:第 03 章
  88. 00:18:32.945                             : en:第 04 章
  89. 00:22:18.754                             : en:第 05 章
  90. 00:29:41.279                             : en:第 06 章
  91. 00:38:05.866                             : en:第 07 章
  92. 00:45:09.790                             : en:第 08 章
  93. 00:48:42.502                             : en:第 09 章
  94. 00:52:42.659                             : en:第 10 章
  95. 00:58:49.526                             : en:第 11 章
  96. 01:05:58.746                             : en:第 12 章
  97. 01:11:53.851                             : en:第 13 章
  98. 01:15:26.438                             : en:第 14 章
  99. 01:26:31.394                             : en:第 15 章
  100. 01:31:04.500                             : en:第 16 章
  101. 01:37:05.486                             : en:第 17 章
  102. 01:42:38.152                             : en:第 18 章
复制代码

进步音量!我底子听不懂你在唱什么!!/高声点笨蛋!完全不晓得你在唱什么 LOUDER.Cant.Hear.What.Youre.Singin.Wimp.2018.JAPANESE.1080p.BluRay.x264.DTS-iKiW 9.75GB-2.png 进步音量!我底子听不懂你在唱什么!!/高声点笨蛋!完全不晓得你在唱什么 LOUDER.Cant.Hear.What.Youre.Singin.Wimp.2018.JAPANESE.1080p.BluRay.x264.DTS-iKiW 9.75GB-3.png 进步音量!我底子听不懂你在唱什么!!/高声点笨蛋!完全不晓得你在唱什么 LOUDER.Cant.Hear.What.Youre.Singin.Wimp.2018.JAPANESE.1080p.BluRay.x264.DTS-iKiW 9.75GB-4.png






回复

使用道具 举报

懒得打字嘛,点击右侧快捷回复 【右侧内容,后台自定义】
您需要登录后才可以回帖 登录 | 立即加入

本版积分规则

Archiver|小黑屋| 蓝光电影网 |网站地图

Copyright © 2021 Comsenz Inc. Powered by 蓝光电影网

蓝光电影网

本站内容由用户自主分享和转载自互联网,转载目的在于传递更多信息,并不代表本网赞同其观点和对其真实性负责。

如有侵权、违反国家法律政策行为,请联系我们,我们会第一时间及时清除和处理!

举报反馈邮箱:[email protected]

快速回复 返回顶部 返回列表