找回密码

蓝光电影网

查看: 313|回复: 2

[恐怖] 夜晚之眸 The.Night.Has.Eyes.1942.1080p.BluRay.x264-GHOULS 5.47GB

[复制链接]
蓝光币
426
发表于 2020-1-22 15:50:45 | 显示全部楼层 |阅读模式
夜晚之眸 The.Night.Has.Eyes.1942.1080p.BluRay.x264-GHOULS 5.47GB-1.png

译  名 夜晚之眸 / Moonlight Madness / Terror House
片  名 The Night Has Eyes
年  代 1942
产  地 英国
类  别 悬疑 / 惊悚 / 可骇
语  言 英语
上映日期 1942-06-01(英国)
IMDb评分  6.3/10 from 504 users
IMDb链接  https://www.imdb.com/title/tt0035123
豆瓣评分 0/10 from 0 users
豆瓣链接 https://movie.douban.com/subject/33405301/
片  长 79分钟
导  演 莱斯利·阿利斯 Leslie Arliss
编  剧 Alan Kennington / 莱斯利·阿利斯 Leslie Arliss / John Argyle
主  演 詹姆斯·梅森 James Mason
       威尔弗里德·劳森 Wilfrid Lawson
       玛丽·克莱尔 Mary Clare
       Joyce Howard
       Tucker McGuire
       John Fernald
       Dorothy Black
       Amy Dalby


标  签 詹姆斯·梅森 | 英国电影 | 英国 | 美国电影 | 惊悚 | 悬疑 | 可骇

简  介  

  暂无相关剧情先容
  1. Video
  2. ID                                       : 1
  3. Format                                   : AVC
  4. Format/Info                              : Advanced Video Codec
  5. Format profile                           : [email protected]
  6. Format settings                          : CABAC / 5 Ref Frames
  7. Format settings, CABAC                   : Yes
  8. Format settings, Reference frames        : 5 frames
  9. Codec ID                                 : V_MPEG4/ISO/AVC
  10. Duration                                 : 1 h 18 min
  11. Bit rate                                 : 9 567 kb/s
  12. Width                                    : 1 488 pixels
  13. Height                                   : 1 080 pixels
  14. Display aspect ratio                     : 1.378
  15. Frame rate mode                          : Constant
  16. Frame rate                               : 24.000 FPS
  17. Color space                              : YUV
  18. Chroma subsampling                       : 4:2:0
  19. Bit depth                                : 8 bits
  20. Scan type                                : Progressive
  21. Bits/(Pixel*Frame)                       : 0.248
  22. Stream size                              : 5.28 GiB (97%)
  23. Writing library                          : x264 core 158 r2988 7817004
  24. Encoding settings                        : cabac=1 / ref=5 / deblock=1:-3:-3 / analyse=0x3:0x133 / me=umh / subme=9 / psy=1 / psy_rd=1.00:0.00 / mixed_ref=1 / me_range=24 / chroma_me=1 / trellis=1 / 8x8dct=1 / cqm=0 / deadzone=21,11 / fast_pskip=0 / chroma_qp_offset=-2 / threads=24 / lookahead_threads=4 / sliced_threads=0 / nr=0 / decimate=1 / interlaced=0 / bluray_compat=0 / constrained_intra=0 / bframes=8 / b_pyramid=2 / b_adapt=2 / b_bias=0 / direct=3 / weightb=1 / open_gop=0 / weightp=2 / keyint=250 / keyint_min=24 / scenecut=40 / intra_refresh=0 / rc_lookahead=60 / rc=2pass / mbtree=1 / bitrate=9567 / ratetol=1.0 / qcomp=0.60 / qpmin=0 / qpmax=69 / qpstep=4 / cplxblur=20.0 / qblur=0.5 / vbv_maxrate=62500 / vbv_bufsize=78125 / nal_hrd=none / filler=0 / ip_ratio=1.40 / aq=1:1.00
  25. Default                                  : Yes
  26. Forced                                   : No

  27. Audio
  28. ID                                       : 2
  29. Format                                   : FLAC
  30. Format/Info                              : Free Lossless Audio Codec
  31. Codec ID                                 : A_FLAC
  32. Duration                                 : 1 h 18 min
  33. Bit rate mode                            : Variable
  34. Bit rate                                 : 341 kb/s
  35. Channel(s)                               : 2 channels
  36. Channel layout                           : L R
  37. Sampling rate                            : 48.0 kHz
  38. Frame rate                               : 10.417 FPS (4608 SPF)
  39. Bit depth                                : 16 bits
  40. Compression mode                         : Lossless
  41. Stream size                              : 193 MiB (3%)
  42. Writing library                          : Lavf58.29.100
  43. Language                                 : English
  44. Default                                  : Yes
  45. Forced                                   : No

  46. Menu
  47. 00:00:00.000                             : en:Chapter 01
  48. 00:06:33.167                             : en:Chapter 02
  49. 00:14:24.000                             : en:Chapter 03
  50. 00:21:19.542                             : en:Chapter 04
  51. 00:26:14.375                             : en:Chapter 05
  52. 00:34:11.500                             : en:Chapter 06
  53. 00:39:16.125                             : en:Chapter 07
  54. 00:45:41.875                             : en:Chapter 08
  55. 00:50:01.625                             : en:Chapter 09
  56. 00:58:10.083                             : en:Chapter 10
  57. 01:05:31.167                             : en:Chapter 11
  58. 01:09:17.375                             : en:Chapter 12
复制代码

夜晚之眸 The.Night.Has.Eyes.1942.1080p.BluRay.x264-GHOULS 5.47GB-2.png






回复

使用道具 举报

懒得打字嘛,点击右侧快捷回复 【右侧内容,后台自定义】
您需要登录后才可以回帖 登录 | 立即加入

本版积分规则

Archiver|小黑屋| 蓝光电影网 |网站地图

Copyright © 2021 Comsenz Inc. Powered by 蓝光电影网

蓝光电影网

本站内容由用户自主分享和转载自互联网,转载目的在于传递更多信息,并不代表本网赞同其观点和对其真实性负责。

如有侵权、违反国家法律政策行为,请联系我们,我们会第一时间及时清除和处理!

举报反馈邮箱:[email protected]

快速回复 返回顶部 返回列表