找回密码

蓝光电影网

查看: 233|回复: 0

[剧情] 绅士联盟/巴兹尔迪尔登的地下伦敦之绅士联盟 The.League.of.Gentlemen.1960.1080p.BluRay.REMUX.AVC.LPCM.2.0-FGT 22.28GB

[复制链接]
蓝光币
386
发表于 2020-1-22 15:57:34 | 显示全部楼层 |阅读模式
名流同盟/巴兹尔迪尔登的地下伦敦之名流同盟 The.League.of.Gentlemen.1960.1080p.BluRay.REMUX.AVC.LPCM.2.0-FGT 22.28GB-1.png

译  名 名流同盟 / 巴兹尔迪尔登的地下伦敦之名流同盟
片  名 The League of Gentlemen
年  代 1960
产  地 英国
类  别 剧情 / 笑剧 / 犯罪 / 冒险
语  言 英语
上映日期 1960-04-05
IMDb评分  7.3/10 from 3448 users
IMDb链接  https://www.imdb.com/title/tt0052997
豆瓣评分 7.7/10 from 150 users
豆瓣链接 https://movie.douban.com/subject/3105237/
片  长 116 分钟
导  演 巴兹尔·迪尔登 Basil Dearden
编  剧 约翰·博兰 John Boland / 布莱恩·福布斯 Bryan Forbes
主  演 奈吉尔·帕特里克 Nigel Patrick
       布莱恩·福布斯 Bryan Forbes
       杰克·霍金斯 Jack Hawkins
       罗杰·莱伍赛 Roger Livesey
       理查德·阿滕伯勒 Richard Attenborough
       基隆·摩尔 Kieron Moore


标  签 英国 | 犯罪 | 英国电影 | BasilDearden | CC | 1960s | 1960 | UK

简  介  

  在影片里杰克·霍肯斯归纳了一个被迫退休的上校,请一个败北的前英国陆军主干来帮他抢劫一百万英镑——这个冒险复杂的计划同时还牵扯进了军队。强大的演员声势包括了英国最著名的演员们:理查德·阿顿布罗夫, 布莱恩·福比斯和罗杰·里弗斯。让这部里程碑式的电影敏捷蹿红并影响了今后好莱坞无数的同范例影片。
  1. Video
  2. ID                                       : 1
  3. Format                                   : AVC
  4. Format/Info                              : Advanced Video Codec
  5. Format profile                           : [email protected]
  6. Format settings                          : CABAC / 3 Ref Frames
  7. Format settings, CABAC                   : Yes
  8. Format settings, Reference frames        : 3 frames
  9. Format settings, GOP                     : M=3, N=12
  10. Codec ID                                 : V_MPEG4/ISO/AVC
  11. Duration                                 : 1 h 53 min
  12. Bit rate mode                            : Variable
  13. Bit rate                                 : 24.9 Mb/s
  14. Maximum bit rate                         : 33.0 Mb/s
  15. Width                                    : 1 920 pixels
  16. Height                                   : 1 080 pixels
  17. Display aspect ratio                     : 16:9
  18. Frame rate mode                          : Constant
  19. Frame rate                               : 24.000 FPS
  20. Standard                                 : NTSC
  21. Color space                              : YUV
  22. Chroma subsampling                       : 4:2:0
  23. Bit depth                                : 8 bits
  24. Scan type                                : Progressive
  25. Bits/(Pixel*Frame)                       : 0.501
  26. Stream size                              : 19.8 GiB (89%)
  27. Title                                    : The.League.of.Gentlemen.1960.1080p.BluRay.REMUX.AVC.LPCM.2.0-FGT
  28. Language                                 : English
  29. Default                                  : No
  30. Forced                                   : No
  31. Color range                              : Limited
  32. Color primaries                          : BT.709
  33. Transfer characteristics                 : BT.709
  34. Matrix coefficients                      : BT.709

  35. Audio #1
  36. ID                                       : 2
  37. Format                                   : PCM
  38. Format settings                          : Little / Signed
  39. Codec ID                                 : A_PCM/INT/LIT
  40. Duration                                 : 1 h 53 min
  41. Bit rate mode                            : Constant
  42. Bit rate                                 : 1 536 kb/s
  43. Channel(s)                               : 2 channels
  44. Sampling rate                            : 48.0 kHz
  45. Frame rate                               : 30.000 FPS (1600 SPF)
  46. Bit depth                                : 16 bits
  47. Stream size                              : 1.22 GiB (5%)
  48. Title                                    : The.League.of.Gentlemen.1960.1080p.BluRay.REMUX.AVC.LPCM.2.0-FGT
  49. Language                                 : English
  50. Default                                  : Yes
  51. Forced                                   : No

  52. Audio #2
  53. ID                                       : 3
  54. Format                                   : PCM
  55. Format settings                          : Little / Signed
  56. Codec ID                                 : A_PCM/INT/LIT
  57. Duration                                 : 1 h 53 min
  58. Bit rate mode                            : Constant
  59. Bit rate                                 : 1 536 kb/s
  60. Channel(s)                               : 2 channels
  61. Sampling rate                            : 48.0 kHz
  62. Frame rate                               : 30.000 FPS (1600 SPF)
  63. Bit depth                                : 16 bits
  64. Stream size                              : 1.22 GiB (5%)
  65. Title                                    : The.League.of.Gentlemen.1960.1080p.BluRay.REMUX.AVC.LPCM.2.0-FGT
  66. Language                                 : English
  67. Default                                  : No
  68. Forced                                   : No

  69. Text
  70. ID                                       : 4
  71. Format                                   : PGS
  72. Muxing mode                              : zlib
  73. Codec ID                                 : S_HDMV/PGS
  74. Codec ID/Info                            : Picture based subtitle format used on BDs/HD-DVDs
  75. Duration                                 : 1 h 52 min
  76. Bit rate                                 : 113 kb/s
  77. Count of elements                        : 5213
  78. Stream size                              : 91.1 MiB (0%)
  79. Title                                    : English-PGS
  80. Language                                 : English
  81. Default                                  : Yes
  82. Forced                                   : No

  83. Menu
  84. 00:00:00.000                             : en:Chapter 01
  85. 00:09:05.125                             : en:Chapter 02
  86. 00:19:17.250                             : en:Chapter 03
  87. 00:32:21.291                             : en:Chapter 04
  88. 00:44:42.666                             : en:Chapter 05
  89. 00:52:08.750                             : en:Chapter 06
  90. 01:02:03.250                             : en:Chapter 07
  91. 01:14:22.208                             : en:Chapter 08
  92. 01:23:00.083                             : en:Chapter 09
  93. 01:33:07.875                             : en:Chapter 10
  94. 01:37:10.208                             : en:Chapter 11
  95. 01:48:52.583                             : en:Chapter 12
复制代码

名流同盟/巴兹尔迪尔登的地下伦敦之名流同盟 The.League.of.Gentlemen.1960.1080p.BluRay.REMUX.AVC.LPCM.2.0-FGT 22.28GB-2.png 名流同盟/巴兹尔迪尔登的地下伦敦之名流同盟 The.League.of.Gentlemen.1960.1080p.BluRay.REMUX.AVC.LPCM.2.0-FGT 22.28GB-3.png 名流同盟/巴兹尔迪尔登的地下伦敦之名流同盟 The.League.of.Gentlemen.1960.1080p.BluRay.REMUX.AVC.LPCM.2.0-FGT 22.28GB-4.png






回复

使用道具 举报

懒得打字嘛,点击右侧快捷回复 【右侧内容,后台自定义】
您需要登录后才可以回帖 登录 | 立即加入

本版积分规则

Archiver|小黑屋| 蓝光电影网 |网站地图

Copyright © 2021 Comsenz Inc. Powered by 蓝光电影网

蓝光电影网

本站内容由用户自主分享和转载自互联网,转载目的在于传递更多信息,并不代表本网赞同其观点和对其真实性负责。

如有侵权、违反国家法律政策行为,请联系我们,我们会第一时间及时清除和处理!

举报反馈邮箱:[email protected]

快速回复 返回顶部 返回列表