找回密码

蓝光电影网

查看: 353|回复: 2

[剧情] 布鲁克林秘案/布鲁克林孤儿 Motherless.Brooklyn.2019.1080p.BluRay.REMUX.AVC.DTS-HD.MA.5.1-FGT 33.22GB

[复制链接]
蓝光币
382
发表于 2020-1-22 16:00:09 | 显示全部楼层 |阅读模式
布鲁克林秘案/布鲁克林孤儿 Motherless.Brooklyn.2019.1080p.BluRay.REMUX.AVC.DTS-HD.MA.5.1-FGT 33.22GB-1.png

译  名 布鲁克林秘案 / 布鲁克林孤儿(台) / 布鲁克林的流浪儿 / 无母之城(港)
片  名 Motherless Brooklyn
年  代 2019
产  地 美国
类  别 剧情 / 犯罪
语  言 英语
上映日期 2019-08-30(特柳赖德电影节) / 2019-09-10(多伦多电影节) / 2019-11-01(美国)
IMDb评分  7.0/10 from 10356 users
IMDb链接  https://www.imdb.com/title/tt0385887
豆瓣评分 7.6/10 from 1758 users
豆瓣链接 https://movie.douban.com/subject/1469353/
片  长 144分钟
导  演 爱德华·诺顿 Edward Norton
编  剧 爱德华·诺顿 Edward Norton / 乔纳森·勒瑟姆 Jonathan Lethem
主  演 爱德华·诺顿 Edward Norton
       古古·姆巴塔-劳 Gugu Mbatha-Raw
       亚历克·鲍德温 Alec Baldwin
       鲍比·坎纳瓦尔 Bobby Cannavale
       威廉·达福 Willem Dafoe
       布鲁斯·威利斯 Bruce Willis
       伊桑·苏普利 Ethan Suplee
       切莉·琼斯 Cherry Jones
       达拉斯·罗伯特斯 Dallas Roberts
       乔什·帕斯 Josh Pais
       拉杜·斯平格尔 Radu Spinghel
       费舍·史蒂芬斯 Fisher Stevens
       罗伯特·维斯多姆 Robert Wisdom
       迈克尔·肯尼斯·威廉姆斯 Michael Kenneth Williams
       埃里克·贝瑞曼 Eric Berryman
       尼尔森·艾维登 Nelson Avidon
       莱斯利·曼恩 Leslie Mann
       凯蒂·戴维斯 Katy Davis
       奥利·哈斯基维 Olli Haaskivi
       黛博拉·安格 Deborah Unger
       埃兹拉·巴恩斯 Ezra Barnes
       斯蒂芬·阿德利·葛尔盖 Stephen Adly Guirgis
       拉塞尔·G·琼斯 Russell G. Jones
       布莱斯·科里根 Blaise Corrigan
       列尼斯·德洛桑托斯 Leonys Delossantos
       桃乐丝·麦卡锡 Doris McCarthy
       罗伯特·迈尔斯 Robert Myers


标  签 美国 | 犯罪 | 剧情 | 悬疑 | 2019 | 黑色诙谐 | 惊悚 | 人性

简  介  

  故事围绕1950年月纽约私人侦察莱昂内尔·“布鲁克林”·埃斯罗格展开,面临唯一导师兼好友弗兰克·明纳古怪遇害,身患抽动秽语综合征的孤儿莱昂内尔不能不高低求索,单独深入哈林爵士六合和布鲁克林穷街陋巷,极力探访这起谋杀背后的奥秘和真相。
  影片由爱德华·诺顿执导、编剧、制片并主演,于1950年月纽约大转型布景下重新归纳乔纳森·利瑟姆同名小说《布鲁克林孤儿》中各色今世人物。

获奖情况  

  第77届金球奖(2020)
  电影类 最好原创配乐(提名) 丹尼尔·彭博顿

  第18届美国视觉结果协会奖(2020)
  最好真人电影CG布景(提名)

  第24届金卫星奖(2020)
  电影部分 最好改编剧本(提名) 爱德华·诺顿
  电影部分 最好摄影(提名)
  电影部分 最好美术指导

  第40届伦敦影评人协会奖(2020)
  技术成就奖(提名) 丹尼尔·彭博顿
  1. Video
  2. ID                                       : 1
  3. Format                                   : AVC
  4. Format/Info                              : Advanced Video Codec
  5. Format profile                           : [email protected]
  6. Format settings                          : CABAC / 4 Ref Frames
  7. Format settings, CABAC                   : Yes
  8. Format settings, Reference frames        : 4 frames
  9. Codec ID                                 : V_MPEG4/ISO/AVC
  10. Duration                                 : 2 h 24 min
  11. Bit rate mode                            : Variable
  12. Bit rate                                 : 28.8 Mb/s
  13. Maximum bit rate                         : 34.0 Mb/s
  14. Width                                    : 1 920 pixels
  15. Height                                   : 1 080 pixels
  16. Display aspect ratio                     : 16:9
  17. Frame rate mode                          : Constant
  18. Frame rate                               : 23.976 (24000/1001) FPS
  19. Color space                              : YUV
  20. Chroma subsampling                       : 4:2:0
  21. Bit depth                                : 8 bits
  22. Scan type                                : Progressive
  23. Bits/(Pixel*Frame)                       : 0.579
  24. Stream size                              : 29.0 GiB (87%)
  25. Title                                    : Motherless.Brooklyn.2019.1080p.BluRay.REMUX.AVC.DTS-HD.MA.5.1-FGT
  26. Language                                 : English
  27. Default                                  : No
  28. Forced                                   : No

  29. Audio #1
  30. ID                                       : 2
  31. Format                                   : DTS XLL
  32. Format/Info                              : Digital Theater Systems
  33. Commercial name                          : DTS-HD Master Audio
  34. Codec ID                                 : A_DTS
  35. Duration                                 : 2 h 24 min
  36. Bit rate mode                            : Variable
  37. Bit rate                                 : 2 163 kb/s
  38. Channel(s)                               : 6 channels
  39. Channel layout                           : C L R Ls Rs LFE
  40. Sampling rate                            : 48.0 kHz
  41. Frame rate                               : 93.750 FPS (512 SPF)
  42. Bit depth                                : 16 bits
  43. Compression mode                         : Lossless
  44. Stream size                              : 2.18 GiB (7%)
  45. Title                                    : Motherless.Brooklyn.2019.1080p.BluRay.REMUX.AVC.DTS-HD.MA.5.1-FGT
  46. Language                                 : English
  47. Default                                  : Yes
  48. Forced                                   : No

  49. Audio #2
  50. ID                                       : 3
  51. Format                                   : AC-3
  52. Format/Info                              : Audio Coding 3
  53. Commercial name                          : Dolby Digital
  54. Codec ID                                 : A_AC3
  55. Duration                                 : 2 h 24 min
  56. Bit rate mode                            : Constant
  57. Bit rate                                 : 448 kb/s
  58. Channel(s)                               : 6 channels
  59. Channel layout                           : L R C LFE Ls Rs
  60. Sampling rate                            : 48.0 kHz
  61. Frame rate                               : 31.250 FPS (1536 SPF)
  62. Bit depth                                : 16 bits
  63. Compression mode                         : Lossy
  64. Stream size                              : 463 MiB (1%)
  65. Title                                    : Motherless.Brooklyn.2019.1080p.BluRay.REMUX.AVC.DTS-HD.MA.5.1-FGT
  66. Language                                 : English
  67. Service kind                             : Complete Main
  68. Default                                  : No
  69. Forced                                   : No

  70. Audio #3
  71. ID                                       : 4
  72. Format                                   : AC-3
  73. Format/Info                              : Audio Coding 3
  74. Commercial name                          : Dolby Digital
  75. Codec ID                                 : A_AC3
  76. Duration                                 : 2 h 24 min
  77. Bit rate mode                            : Constant
  78. Bit rate                                 : 448 kb/s
  79. Channel(s)                               : 6 channels
  80. Channel layout                           : L R C LFE Ls Rs
  81. Sampling rate                            : 48.0 kHz
  82. Frame rate                               : 31.250 FPS (1536 SPF)
  83. Bit depth                                : 16 bits
  84. Compression mode                         : Lossy
  85. Stream size                              : 463 MiB (1%)
  86. Title                                    : Motherless.Brooklyn.2019.1080p.BluRay.REMUX.AVC.DTS-HD.MA.5.1-FGT
  87. Language                                 : French
  88. Service kind                             : Complete Main
  89. Default                                  : No
  90. Forced                                   : No

  91. Audio #4
  92. ID                                       : 5
  93. Format                                   : AC-3
  94. Format/Info                              : Audio Coding 3
  95. Commercial name                          : Dolby Digital
  96. Codec ID                                 : A_AC3
  97. Duration                                 : 2 h 24 min
  98. Bit rate mode                            : Constant
  99. Bit rate                                 : 448 kb/s
  100. Channel(s)                               : 6 channels
  101. Channel layout                           : L R C LFE Ls Rs
  102. Sampling rate                            : 48.0 kHz
  103. Frame rate                               : 31.250 FPS (1536 SPF)
  104. Bit depth                                : 16 bits
  105. Compression mode                         : Lossy
  106. Stream size                              : 463 MiB (1%)
  107. Title                                    : Motherless.Brooklyn.2019.1080p.BluRay.REMUX.AVC.DTS-HD.MA.5.1-FGT
  108. Language                                 : Spanish
  109. Service kind                             : Complete Main
  110. Default                                  : No
  111. Forced                                   : No

  112. Audio #5
  113. ID                                       : 6
  114. Format                                   : AC-3
  115. Format/Info                              : Audio Coding 3
  116. Commercial name                          : Dolby Digital
  117. Codec ID                                 : A_AC3
  118. Duration                                 : 2 h 24 min
  119. Bit rate mode                            : Constant
  120. Bit rate                                 : 384 kb/s
  121. Channel(s)                               : 6 channels
  122. Channel layout                           : L R C LFE Ls Rs
  123. Sampling rate                            : 48.0 kHz
  124. Frame rate                               : 31.250 FPS (1536 SPF)
  125. Bit depth                                : 16 bits
  126. Compression mode                         : Lossy
  127. Stream size                              : 396 MiB (1%)
  128. Title                                    : Motherless.Brooklyn.2019.1080p.BluRay.REMUX.AVC.DTS-HD.MA.5.1-FGT
  129. Language                                 : Portuguese
  130. Service kind                             : Complete Main
  131. Default                                  : No
  132. Forced                                   : No

  133. Audio #6
  134. ID                                       : 7
  135. Format                                   : AC-3
  136. Format/Info                              : Audio Coding 3
  137. Commercial name                          : Dolby Digital
  138. Codec ID                                 : A_AC3
  139. Duration                                 : 2 h 24 min
  140. Bit rate mode                            : Constant
  141. Bit rate                                 : 192 kb/s
  142. Channel(s)                               : 2 channels
  143. Channel layout                           : L R
  144. Sampling rate                            : 48.0 kHz
  145. Frame rate                               : 31.250 FPS (1536 SPF)
  146. Bit depth                                : 16 bits
  147. Compression mode                         : Lossy
  148. Stream size                              : 198 MiB (1%)
  149. Title                                    : Motherless.Brooklyn.2019.1080p.BluRay.REMUX.AVC.DTS-HD.MA.5.1-FGT
  150. Language                                 : English
  151. Service kind                             : Complete Main
  152. Default                                  : No
  153. Forced                                   : No

  154. Text #1
  155. ID                                       : 8
  156. Format                                   : UTF-8
  157. Codec ID                                 : S_TEXT/UTF8
  158. Codec ID/Info                            : UTF-8 Plain Text
  159. Duration                                 : 2 h 15 min
  160. Bit rate                                 : 80 b/s
  161. Count of elements                        : 2332
  162. Stream size                              : 80.4 KiB (0%)
  163. Title                                    : English-SRT
  164. Language                                 : English
  165. Default                                  : Yes
  166. Forced                                   : No

  167. Text #2
  168. ID                                       : 9
  169. Format                                   : PGS
  170. Muxing mode                              : zlib
  171. Codec ID                                 : S_HDMV/PGS
  172. Codec ID/Info                            : Picture based subtitle format used on BDs/HD-DVDs
  173. Duration                                 : 2 h 16 min
  174. Bit rate                                 : 51.1 kb/s
  175. Count of elements                        : 4934
  176. Stream size                              : 49.8 MiB (0%)
  177. Title                                    : English-PGS
  178. Language                                 : English
  179. Default                                  : No
  180. Forced                                   : No

  181. Text #3
  182. ID                                       : 10
  183. Format                                   : PGS
  184. Muxing mode                              : zlib
  185. Codec ID                                 : S_HDMV/PGS
  186. Codec ID/Info                            : Picture based subtitle format used on BDs/HD-DVDs
  187. Duration                                 : 2 h 23 min
  188. Bit rate                                 : 36.6 kb/s
  189. Count of elements                        : 4186
  190. Stream size                              : 37.6 MiB (0%)
  191. Title                                    : French-PGS
  192. Language                                 : French
  193. Default                                  : No
  194. Forced                                   : No

  195. Text #4
  196. ID                                       : 11
  197. Format                                   : PGS
  198. Muxing mode                              : zlib
  199. Codec ID                                 : S_HDMV/PGS
  200. Codec ID/Info                            : Picture based subtitle format used on BDs/HD-DVDs
  201. Duration                                 : 2 h 23 min
  202. Bit rate                                 : 45.9 kb/s
  203. Count of elements                        : 4606
  204. Stream size                              : 47.1 MiB (0%)
  205. Title                                    : Spanish-PGS
  206. Language                                 : Spanish
  207. Default                                  : No
  208. Forced                                   : No

  209. Text #5
  210. ID                                       : 12
  211. Format                                   : PGS
  212. Muxing mode                              : zlib
  213. Codec ID                                 : S_HDMV/PGS
  214. Codec ID/Info                            : Picture based subtitle format used on BDs/HD-DVDs
  215. Duration                                 : 2 h 23 min
  216. Bit rate                                 : 40.8 kb/s
  217. Count of elements                        : 4528
  218. Stream size                              : 41.9 MiB (0%)
  219. Title                                    : Portuguese-PGS
  220. Language                                 : Portuguese
  221. Default                                  : No
  222. Forced                                   : No

  223. Text #6
  224. ID                                       : 13
  225. Format                                   : PGS
  226. Muxing mode                              : zlib
  227. Codec ID                                 : S_HDMV/PGS
  228. Codec ID/Info                            : Picture based subtitle format used on BDs/HD-DVDs
  229. Duration                                 : 2 h 15 min
  230. Bit rate                                 : 1 358 b/s
  231. Count of elements                        : 138
  232. Stream size                              : 1.32 MiB (0%)
  233. Title                                    : French-FORCED-PGS
  234. Language                                 : French
  235. Default                                  : No
  236. Forced                                   : No

  237. Text #7
  238. ID                                       : 14
  239. Format                                   : PGS
  240. Muxing mode                              : zlib
  241. Codec ID                                 : S_HDMV/PGS
  242. Codec ID/Info                            : Picture based subtitle format used on BDs/HD-DVDs
  243. Duration                                 : 2 h 4 min
  244. Bit rate                                 : 1 326 b/s
  245. Count of elements                        : 88
  246. Stream size                              : 1.18 MiB (0%)
  247. Title                                    : Spanish-FORCED-PGS
  248. Language                                 : Spanish
  249. Default                                  : No
  250. Forced                                   : No

  251. Text #8
  252. ID                                       : 15
  253. Format                                   : PGS
  254. Muxing mode                              : zlib
  255. Codec ID                                 : S_HDMV/PGS
  256. Codec ID/Info                            : Picture based subtitle format used on BDs/HD-DVDs
  257. Duration                                 : 1 h 49 min
  258. Bit rate                                 : 369 b/s
  259. Count of elements                        : 26
  260. Stream size                              : 295 KiB (0%)
  261. Title                                    : Portuguese-FORCED-PGS
  262. Language                                 : Portuguese
  263. Default                                  : No
  264. Forced                                   : No

  265. Menu
  266. 00:00:00.000                             : en:Chapter 01
  267. 00:09:57.847                             : en:Chapter 02
  268. 00:19:20.325                             : en:Chapter 03
  269. 00:29:14.586                             : en:Chapter 04
  270. 00:38:47.575                             : en:Chapter 05
  271. 00:46:33.957                             : en:Chapter 06
  272. 00:54:01.821                             : en:Chapter 07
  273. 01:02:12.603                             : en:Chapter 08
  274. 01:08:42.618                             : en:Chapter 09
  275. 01:17:48.205                             : en:Chapter 10
  276. 01:26:55.919                             : en:Chapter 11
  277. 01:34:07.350                             : en:Chapter 12
  278. 01:41:25.704                             : en:Chapter 13
  279. 01:50:29.289                             : en:Chapter 14
  280. 02:00:21.005                             : en:Chapter 15
  281. 02:07:02.823                             : en:Chapter 16
  282. 02:17:16.603                             : en:Chapter 17
复制代码

布鲁克林秘案/布鲁克林孤儿 Motherless.Brooklyn.2019.1080p.BluRay.REMUX.AVC.DTS-HD.MA.5.1-FGT 33.22GB-2.png 布鲁克林秘案/布鲁克林孤儿 Motherless.Brooklyn.2019.1080p.BluRay.REMUX.AVC.DTS-HD.MA.5.1-FGT 33.22GB-3.png 布鲁克林秘案/布鲁克林孤儿 Motherless.Brooklyn.2019.1080p.BluRay.REMUX.AVC.DTS-HD.MA.5.1-FGT 33.22GB-4.png






回复

使用道具 举报

蓝光币
18
发表于 2020-1-29 16:23:09 | 显示全部楼层

我看不错噢 谢谢楼主!蓝光电影网越来越好!
回复 支持 反对

使用道具 举报

懒得打字嘛,点击右侧快捷回复 【右侧内容,后台自定义】
您需要登录后才可以回帖 登录 | 立即加入

本版积分规则

Archiver|小黑屋| 蓝光电影网 |网站地图

Copyright © 2021 Comsenz Inc. Powered by 蓝光电影网

蓝光电影网

本站内容由用户自主分享和转载自互联网,转载目的在于传递更多信息,并不代表本网赞同其观点和对其真实性负责。

如有侵权、违反国家法律政策行为,请联系我们,我们会第一时间及时清除和处理!

举报反馈邮箱:[email protected]

快速回复 返回顶部 返回列表