找回密码

蓝光电影网

查看: 103|回复: 1

[剧情] 上错床:赤裸职业 The.Wrong.Bed.Naked.Pursuit.2017.1080p.AMZN.WEBRip.DDP2.0.x264-ABM 6.65GB

[复制链接]
蓝光币
382
发表于 2020-1-22 17:08:02 | 显示全部楼层 |阅读模式
上错床:赤裸职业 The.Wrong.Bed.Naked.Pursuit.2017.1080p.AMZN.WEBRip.DDP2.0.x264-ABM 6.65GB-1.png

译  名 上错床:赤裸职业
片  名 The Wrong Bed: Naked Pursuit
年  代 2017
产  地 美国
类  别 剧情 / 悬疑 / 惊悚
上映日期 2017-06-02(美国)
IMDb评分  4.8/10 from 212 users
IMDb链接  https://www.imdb.com/title/tt6912586
豆瓣评分 0/10 from 0 users
豆瓣链接 https://movie.douban.com/subject/27197410/
主  演 朱尔·斯泰特 Jewel Staite
       柯里·瑟威尔 Corey Sevier
       诺安·坚金斯 Noam Jenkins


简  介  

  After losing her job at an insurance company, Stella Williams wakes up in a hotel handcuffed to sexy firefighter Owen Michaels. Messages they left themselves the night before reveal that their lives are in danger. While on the run, flashbacks help Stella put the pieces back together, but before she and Owen can unravel the truth, they are confronted with the reality of their dangerous situation.
  —raeanndolce
  Owen Michaels, a Boulder, Colorado firefighter, and Stella Williams, who one month ago was fired from her job as an insurance claims adjuster, wake up one morning naked, handcuffed together in an upstate New York hotel room, they having full knowledge of who they are, but no knowledge of what happened the past 24 hours or so meaning no knowledge of how they got handcuffed or why they are in the hotel room, and no knowledge of who the other person is, they both feeling like they were drugged. While Stella is a local, Owen grew up in this neck of the woods where he visits his sister Bethany once a year to mourn together the passing five years ago of their younger sister Lily, who died from leukemia. While Owen initially remembers nothing about the past 24 hours, all Stella initially remembers is trying to get away from a woman, she remembering her face and her name being Larissa. Stella believes Larissa would have done her some harm if she indeed was able to apprehend her. Stella and Owen try to backtrack the evening prior with what little information they have on hand, at certain stops along the way other pieces of the puzzle coming fuzzily back into memory for both Stella and Owen. They have to piece together the entire story before Larissa and her colleagues at A.C.P.I. Laboratories find them, one within this group who is willing to kill to protect secrets and exact revenge.
  —Huggo
  1. Video
  2. ID                                       : 1
  3. Format                                   : AVC
  4. Format/Info                              : Advanced Video Codec
  5. Format profile                           : [email protected]
  6. Format settings                          : CABAC / 4 Ref Frames
  7. Format settings, CABAC                   : Yes
  8. Format settings, Reference frames        : 4 frames
  9. Codec ID                                 : V_MPEG4/ISO/AVC
  10. Duration                                 : 1 h 25 min
  11. Bit rate mode                            : Variable
  12. Bit rate                                 : 10.9 Mb/s
  13. Maximum bit rate                         : 15.0 Mb/s
  14. Width                                    : 1 920 pixels
  15. Height                                   : 1 080 pixels
  16. Display aspect ratio                     : 16:9
  17. Frame rate mode                          : Constant
  18. Frame rate                               : 23.976 (24000/1001) FPS
  19. Color space                              : YUV
  20. Chroma subsampling                       : 4:2:0
  21. Bit depth                                : 8 bits
  22. Scan type                                : Progressive
  23. Bits/(Pixel*Frame)                       : 0.220
  24. Stream size                              : 6.51 GiB (98%)
  25. Default                                  : Yes
  26. Forced                                   : No
  27. Color range                              : Limited
  28. Color primaries                          : BT.709
  29. Transfer characteristics                 : BT.709
  30. Matrix coefficients                      : BT.709

  31. Audio
  32. ID                                       : 2
  33. Format                                   : E-AC-3
  34. Format/Info                              : Enhanced AC-3
  35. Commercial name                          : Dolby Digital Plus
  36. Codec ID                                 : A_EAC3
  37. Duration                                 : 1 h 25 min
  38. Bit rate mode                            : Constant
  39. Bit rate                                 : 224 kb/s
  40. Channel(s)                               : 2 channels
  41. Channel layout                           : L R
  42. Sampling rate                            : 48.0 kHz
  43. Frame rate                               : 31.250 FPS (1536 SPF)
  44. Compression mode                         : Lossy
  45. Stream size                              : 137 MiB (2%)
  46. Language                                 : English
  47. Service kind                             : Complete Main
  48. Default                                  : Yes
  49. Forced                                   : No

  50. Text
  51. ID                                       : 3
  52. Format                                   : UTF-8
  53. Codec ID                                 : S_TEXT/UTF8
  54. Codec ID/Info                            : UTF-8 Plain Text
  55. Duration                                 : 1 h 24 min
  56. Bit rate                                 : 57 b/s
  57. Count of elements                        : 1648
  58. Stream size                              : 35.9 KiB (0%)
  59. Language                                 : English
  60. Default                                  : No
  61. Forced                                   : No
复制代码

上错床:赤裸职业 The.Wrong.Bed.Naked.Pursuit.2017.1080p.AMZN.WEBRip.DDP2.0.x264-ABM 6.65GB-2.png 上错床:赤裸职业 The.Wrong.Bed.Naked.Pursuit.2017.1080p.AMZN.WEBRip.DDP2.0.x264-ABM 6.65GB-1.png 上错床:赤裸职业 The.Wrong.Bed.Naked.Pursuit.2017.1080p.AMZN.WEBRip.DDP2.0.x264-ABM 6.65GB-4.png






回复

使用道具 举报

懒得打字嘛,点击右侧快捷回复 【右侧内容,后台自定义】
您需要登录后才可以回帖 登录 | 立即加入

本版积分规则

Archiver|小黑屋| 蓝光电影网 |网站地图

Copyright © 2021 Comsenz Inc. Powered by 蓝光电影网

蓝光电影网

本站内容由用户自主分享和转载自互联网,转载目的在于传递更多信息,并不代表本网赞同其观点和对其真实性负责。

如有侵权、违反国家法律政策行为,请联系我们,我们会第一时间及时清除和处理!

举报反馈邮箱:[email protected]

快速回复 返回顶部 返回列表