找回密码

蓝光电影网

查看: 110|回复: 0

[恐怖] 暴力新娘 Bride.Of.Violence.2018.720p.AMZN.WEBRip.DDP2.0.x264-TEPES 2.04GB

[复制链接]
蓝光币
382
发表于 2020-1-22 21:25:23 | 显示全部楼层 |阅读模式
暴力新娘 Bride.Of.Violence.2018.720p.AMZN.WEBRip.DDP2.0.x264-TEPES 2.04GB-1.png

译  名 暴力新娘
片  名 Bride of Violence
年  代 2018
产  地 美国
类  别 可骇
IMDb评分  4.8/10 from 53 users
IMDb链接  https://www.imdb.com/title/tt3813018
豆瓣评分 0/10 from 0 users
豆瓣链接 https://movie.douban.com/subject/30355521/

标  签 美国 | 烂片 | 可骇

简  介  

  Dennis and Kate, a young Christian couple who are about to be married, go camping one weekend and run into an escaped convict named Berenger. Isolated in the wilderness, they are tortured and terrorized by this man, while Dennis m.ysgou.cc continues to have apocalyptic visions from the Book of Revelations which may be coming true.
  1. Video
  2. ID                                       : 1
  3. Format                                   : AVC
  4. Format/Info                              : Advanced Video Codec
  5. Format profile                           : [email protected]
  6. Format settings                          : CABAC / 4 Ref Frames
  7. Format settings, CABAC                   : Yes
  8. Format settings, Reference frames        : 4 frames
  9. Format settings, GOP                     : M=4, N=48
  10. Codec ID                                 : V_MPEG4/ISO/AVC
  11. Duration                                 : 1 h 22 min
  12. Bit rate mode                            : Constant
  13. Bit rate                                 : 3 306 kb/s
  14. Nominal bit rate                         : 6 000 kb/s
  15. Width                                    : 1 280 pixels
  16. Height                                   : 688 pixels
  17. Display aspect ratio                     : 1.85:1
  18. Frame rate mode                          : Constant
  19. Frame rate                               : 23.976 (24000/1001) FPS
  20. Color space                              : YUV
  21. Chroma subsampling                       : 4:2:0
  22. Bit depth                                : 8 bits
  23. Scan type                                : Progressive
  24. Bits/(Pixel*Frame)                       : 0.157
  25. Stream size                              : 1.91 GiB (94%)
  26. Default                                  : Yes
  27. Forced                                   : No
  28. Color range                              : Limited
  29. Color primaries                          : BT.709
  30. Transfer characteristics                 : BT.709
  31. Matrix coefficients                      : BT.709

  32. Audio
  33. ID                                       : 2
  34. Format                                   : E-AC-3
  35. Format/Info                              : Enhanced AC-3
  36. Commercial name                          : Dolby Digital Plus
  37. Codec ID                                 : A_EAC3
  38. Duration                                 : 1 h 22 min
  39. Bit rate mode                            : Constant
  40. Bit rate                                 : 224 kb/s
  41. Channel(s)                               : 2 channels
  42. Channel layout                           : L R
  43. Sampling rate                            : 48.0 kHz
  44. Frame rate                               : 31.250 FPS (1536 SPF)
  45. Compression mode                         : Lossy
  46. Stream size                              : 133 MiB (6%)
  47. Language                                 : English
  48. Service kind                             : Complete Main
  49. Default                                  : Yes
  50. Forced                                   : No

  51. Text
  52. ID                                       : 3
  53. Format                                   : UTF-8
  54. Codec ID                                 : S_TEXT/UTF8
  55. Codec ID/Info                            : UTF-8 Plain Text
  56. Duration                                 : 1 h 20 min
  57. Bit rate                                 : 37 b/s
  58. Count of elements                        : 825
  59. Stream size                              : 21.8 KiB (0%)
  60. Title                                    : SDH
  61. Language                                 : English
  62. Default                                  : No
  63. Forced                                   : No
复制代码

暴力新娘 Bride.Of.Violence.2018.720p.AMZN.WEBRip.DDP2.0.x264-TEPES 2.04GB-2.png 暴力新娘 Bride.Of.Violence.2018.720p.AMZN.WEBRip.DDP2.0.x264-TEPES 2.04GB-2.png 暴力新娘 Bride.Of.Violence.2018.720p.AMZN.WEBRip.DDP2.0.x264-TEPES 2.04GB-4.png






回复

使用道具 举报

懒得打字嘛,点击右侧快捷回复 【右侧内容,后台自定义】
您需要登录后才可以回帖 登录 | 立即加入

本版积分规则

Archiver|小黑屋| 蓝光电影网 |网站地图

Copyright © 2021 Comsenz Inc. Powered by 蓝光电影网

蓝光电影网

本站内容由用户自主分享和转载自互联网,转载目的在于传递更多信息,并不代表本网赞同其观点和对其真实性负责。

如有侵权、违反国家法律政策行为,请联系我们,我们会第一时间及时清除和处理!

举报反馈邮箱:[email protected]

快速回复 返回顶部 返回列表