找回密码

蓝光电影网

查看: 107|回复: 0

[剧情] 流浪者橄榄球 The.Nomads.2019.1080p.WEB-DL.DD5.1.H264-FGT 3.34GB

[复制链接]
蓝光币
426
发表于 2020-1-22 21:51:33 | 显示全部楼层 |阅读模式
流浪者橄榄球 The.Nomads.2019.1080p.WEB-DL.DD5.1.H264-FGT 3.34GB-1.png

译  名 流浪者橄榄球
片  名 The Nomads
年  代 2019
产  地 美国
类  别 剧情 / 活动
语  言 英语
IMDb评分  5.3/10 from 15 users
IMDb链接  https://www.imdb.com/title/tt8910924
豆瓣评分 0/10 from 0 users
豆瓣链接 https://movie.douban.com/subject/34850841/
导  演 Brandon Eric Kamin
编  剧 Tara Miele
主  演 提卡·森普特 Tika Sumpter
       泰特·多诺万 Tate Donovan
       Jeffrey Mowery


简  介  

  Amidst the chaos of massive budget cuts and school closures, a newly appointed teacher introduces men's rugby to an molikan.com inner-city North Philadelphia high school.
  1. Video
  2. ID                                       : 1
  3. Format                                   : AVC
  4. Format/Info                              : Advanced Video Codec
  5. Format profile                           : [email protected]
  6. Format settings                          : CABAC / 5 Ref Frames
  7. Format settings, CABAC                   : Yes
  8. Format settings, Reference frames        : 5 frames
  9. Codec ID                                 : V_MPEG4/ISO/AVC
  10. Duration                                 : 1 h 37 min
  11. Bit rate                                 : 4 527 kb/s
  12. Width                                    : 1 916 pixels
  13. Height                                   : 800 pixels
  14. Display aspect ratio                     : 2.40:1
  15. Frame rate mode                          : Constant
  16. Frame rate                               : 23.976 FPS
  17. Color space                              : YUV
  18. Chroma subsampling                       : 4:2:0
  19. Bit depth                                : 8 bits
  20. Scan type                                : Progressive
  21. Bits/(Pixel*Frame)                       : 0.123
  22. Stream size                              : 3.07 GiB (92%)
  23. Title                                    : The.Nomads.2019.1080p.WEB-DL.DD5.1.H264-FGT
  24. Language                                 : English
  25. Default                                  : Yes
  26. Forced                                   : No
  27. Color range                              : Limited
  28. Color primaries                          : BT.709
  29. Transfer characteristics                 : BT.709
  30. Matrix coefficients                      : BT.709

  31. Audio
  32. ID                                       : 2
  33. Format                                   : AC-3
  34. Format/Info                              : Audio Coding 3
  35. Commercial name                          : Dolby Digital
  36. Codec ID                                 : A_AC3
  37. Duration                                 : 1 h 37 min
  38. Bit rate mode                            : Constant
  39. Bit rate                                 : 384 kb/s
  40. Channel(s)                               : 6 channels
  41. Channel layout                           : L R C LFE Ls Rs
  42. Sampling rate                            : 48.0 kHz
  43. Frame rate                               : 31.250 FPS (1536 SPF)
  44. Bit depth                                : 16 bits
  45. Compression mode                         : Lossy
  46. Stream size                              : 267 MiB (8%)
  47. Title                                    : The.Nomads.2019.1080p.WEB-DL.DD5.1.H264-FGT
  48. Language                                 : English
  49. Service kind                             : Complete Main
  50. Default                                  : Yes
  51. Forced                                   : No

  52. Text
  53. ID                                       : 3
  54. Format                                   : UTF-8
  55. Codec ID                                 : S_TEXT/UTF8
  56. Codec ID/Info                            : UTF-8 Plain Text
  57. Duration                                 : 1 h 34 min
  58. Bit rate                                 : 105 b/s
  59. Count of elements                        : 1784
  60. Stream size                              : 72.6 KiB (0%)
  61. Language                                 : English
  62. Default                                  : Yes
  63. Forced                                   : No

  64. Menu
  65. 00:00:00.000                             : en:1
  66. 00:19:22.000                             : en:2
  67. 00:33:20.000                             : en:3
  68. 00:50:19.000                             : en:4
  69. 00:59:14.000                             : en:5
  70. 01:11:10.000                             : en:6
  71. 01:21:14.000                             : en:7
  72. 01:32:19.000                             : en:8
复制代码

流浪者橄榄球 The.Nomads.2019.1080p.WEB-DL.DD5.1.H264-FGT 3.34GB-2.png 流浪者橄榄球 The.Nomads.2019.1080p.WEB-DL.DD5.1.H264-FGT 3.34GB-3.png 流浪者橄榄球 The.Nomads.2019.1080p.WEB-DL.DD5.1.H264-FGT 3.34GB-1.png






回复

使用道具 举报

懒得打字嘛,点击右侧快捷回复 【右侧内容,后台自定义】
您需要登录后才可以回帖 登录 | 立即加入

本版积分规则

Archiver|小黑屋| 蓝光电影网 |网站地图

Copyright © 2021 Comsenz Inc. Powered by 蓝光电影网

蓝光电影网

本站内容由用户自主分享和转载自互联网,转载目的在于传递更多信息,并不代表本网赞同其观点和对其真实性负责。

如有侵权、违反国家法律政策行为,请联系我们,我们会第一时间及时清除和处理!

举报反馈邮箱:[email protected]

快速回复 返回顶部 返回列表