找回密码

蓝光电影网

查看: 384|回复: 9

[剧情] 谎言大师/大说谎家 The.Good.Liar.2019.720p.BluRay.x264-AAA 4.36GB

[复制链接]
蓝光币
386
发表于 2020-1-23 13:38:30 | 显示全部楼层 |阅读模式
假话大师/大扯谎家 The.Good.Liar.2019.720p.BluRay.x264-AAA 4.36GB-1.png

译  名 假话大师 / 大扯谎家(台) / 好骗子 / 圈套谎情(港)
片  名 The Good Liar
年  代 2019
产  地 美国
类  别 剧情
语  言 英语
上映日期 2019-11-15(美国)
IMDb评分  6.6/10 from 5567 users
IMDb链接  https://www.imdb.com/title/tt5563334
豆瓣评分 6.7/10 from 422 users
豆瓣链接 https://movie.douban.com/subject/30167633/
片  长 109分钟
导  演 比尔·康顿 Bill Condon
编  剧 杰弗里·哈彻 Jeffrey Hatcher / 尼古拉斯·希尔勒 Nicholas Searle
主  演 海伦·米伦 Helen Mirren
       伊恩·麦克莱恩 Ian McKellen
       拉塞尔·托维 Russell Tovey
       马克·路易斯·琼斯 Mark Lewis Jones
       吉姆·卡特 Jim Carter
       约翰内斯·豪克尔·约翰内森 Jóhannes Haukur Jóhannesson
       席琳·邦金斯 Celine Buckens
       贝西·卡特 Bessie Carter
       亚历山大·约瓦诺维奇 Aleksandar Jovanovic
       菲尔·邓斯特 Phil Dunster
       迈克尔·卡尔金 Michael Culkin
       劳里·戴维森 Laurie Davidson
       露丝·霍洛克斯 Ruth Horrocks
       杰奎琳·拉姆娜莱恩 Jacqueline Ramnarine
       内尔·威廉姆斯 Nell Williams
       贾格·帕特尔 Jag Patel
       莉莉·多斯沃斯 埃文斯 Lily Dodsworth-Evans
       斯特拉·斯托克尔 Stella Stocker
       朱利安·费罗 Julian Ferro
       马诺伊·阿南德 Manoj Anand
       弗兰·塔格 Fran Targ
       斯派克·怀特 Spike White
       凯文·马塔迪恩 Kevin Matadeen


标  签 悬疑 | 美国 | 2019 | 剧情 | 恋爱 | 电影 | 惊悚 | 黑色诙谐

简  介  

  海伦·米伦与伊恩·麦克莱恩行将出演新线的剧情片《The Good Liar》(优异的骗子,暂译)。影片将由比尔·康顿执导,他比来的作品,就是在全天下狂揽12亿美圆的《美男与野兽》。
  在影片中,伊恩爵士饰演一位职业骗子,当他碰到海伦·米伦饰演的敷裕孀妇时,简直不敢相信自己的命运。这位孀妇把自己的生活和家门都向骗子翻开,骗子却发现自己是真的关心她,让这笔本该骗了就撤的买卖,酿成了像走钢丝一样的危险关系。

获奖情况  

  第24届金卫星奖(2020)
  电影部分 剧情片最好女配角(提名) 海伦·米伦
  1. Video
  2. ID                                       : 1
  3. Format                                   : AVC
  4. Format/Info                              : Advanced Video Codec
  5. Format profile                           : [email protected]
  6. Format settings                          : CABAC / 5 Ref Frames
  7. Format settings, CABAC                   : Yes
  8. Format settings, Reference frames        : 5 frames
  9. Codec ID                                 : V_MPEG4/ISO/AVC
  10. Duration                                 : 1 h 49 min
  11. Bit rate                                 : 4 187 kb/s
  12. Width                                    : 1 280 pixels
  13. Height                                   : 536 pixels
  14. Display aspect ratio                     : 2.40:1
  15. Frame rate mode                          : Constant
  16. Frame rate                               : 23.976 (24000/1001) FPS
  17. Color space                              : YUV
  18. Chroma subsampling                       : 4:2:0
  19. Bit depth                                : 8 bits
  20. Scan type                                : Progressive
  21. Bits/(Pixel*Frame)                       : 0.255
  22. Stream size                              : 3.20 GiB (73%)
  23. Title                                    : The.Good.Liar.2019.720p.BluRay.x264-AAA
  24. Writing library                          : x264 core 157 r2969 d4099dd
  25. Encoding settings                        : cabac=1 / ref=5 / deblock=1:0:0 / analyse=0x3:0x113 / me=umh / subme=8 / psy=1 / psy_rd=1.00:0.00 / mixed_ref=1 / me_range=16 / chroma_me=1 / trellis=1 / 8x8dct=1 / cqm=0 / deadzone=21,11 / fast_pskip=1 / chroma_qp_offset=-2 / threads=17 / lookahead_threads=2 / sliced_threads=0 / nr=0 / decimate=1 / interlaced=0 / bluray_compat=0 / constrained_intra=0 / bframes=3 / b_pyramid=2 / b_adapt=2 / b_bias=0 / direct=3 / weightb=1 / open_gop=0 / weightp=2 / keyint=240 / keyint_min=23 / scenecut=40 / intra_refresh=0 / rc_lookahead=50 / rc=2pass / mbtree=1 / bitrate=4187 / ratetol=1.0 / qcomp=0.60 / qpmin=0 / qpmax=69 / qpstep=4 / cplxblur=20.0 / qblur=0.5 / ip_ratio=1.40 / aq=1:1.00
  26. Default                                  : Yes
  27. Forced                                   : No

  28. Audio
  29. ID                                       : 2
  30. Format                                   : DTS
  31. Format/Info                              : Digital Theater Systems
  32. Codec ID                                 : A_DTS
  33. Duration                                 : 1 h 49 min
  34. Bit rate mode                            : Constant
  35. Bit rate                                 : 1 509 kb/s
  36. Channel(s)                               : 6 channels
  37. Channel layout                           : C L R Ls Rs LFE
  38. Sampling rate                            : 48.0 kHz
  39. Frame rate                               : 93.750 FPS (512 SPF)
  40. Bit depth                                : 24 bits
  41. Compression mode                         : Lossy
  42. Stream size                              : 1.16 GiB (26%)
  43. Title                                    : English Digital Theater Systems (DTS)
  44. Language                                 : English
  45. Default                                  : Yes
  46. Forced                                   : No

  47. Menu
  48. 00:00:00.000                             : :Chapter 01
  49. 00:07:26.029                             : :Chapter 02
  50. 00:17:30.091                             : :Chapter 03
  51. 00:26:54.112                             : :Chapter 04
  52. 00:34:31.653                             : :Chapter 05
  53. 00:43:15.843                             : :Chapter 06
  54. 00:52:14.340                             : :Chapter 07
  55. 01:00:50.772                             : :Chapter 08
  56. 01:08:18.177                             : :Chapter 09
  57. 01:17:54.712                             : :Chapter 10
  58. 01:27:05.720                             : :Chapter 11
  59. 01:36:41.838                             : :Chapter 12
  60. 01:45:10.179                             : :Chapter 13
复制代码

假话大师/大扯谎家 The.Good.Liar.2019.720p.BluRay.x264-AAA 4.36GB-2.png







回复

使用道具 举报

懒得打字嘛,点击右侧快捷回复 【右侧内容,后台自定义】
您需要登录后才可以回帖 登录 | 立即加入

本版积分规则

Archiver|小黑屋| 蓝光电影网 |网站地图

Copyright © 2021 Comsenz Inc. Powered by 蓝光电影网

蓝光电影网

本站内容由用户自主分享和转载自互联网,转载目的在于传递更多信息,并不代表本网赞同其观点和对其真实性负责。

如有侵权、违反国家法律政策行为,请联系我们,我们会第一时间及时清除和处理!

举报反馈邮箱:[email protected]

快速回复 返回顶部 返回列表