找回密码

蓝光电影网

查看: 157|回复: 0

[恐怖] 幽灵 Wraith.2017.1080p.WEB-DL.DD5.1.H264-FGT 3.76GB

[复制链接]
蓝光币
382
发表于 2020-1-23 13:50:26 | 显示全部楼层 |阅读模式
鬼魂 Wraith.2017.1080p.WEB-DL.DD5.1.H264-FGT 3.76GB-1.png

译  名 鬼魂
片  名 Wraith
年  代 2017
产  地 美国
类  别 悬疑 / 惊悚 / 可骇
语  言 英语
上映日期 2017-04-05(美国)
IMDb评分  3.4/10 from 451 users
IMDb链接  https://www.imdb.com/title/tt5637736
豆瓣评分 0/10 from 0 users
豆瓣链接 https://movie.douban.com/subject/26796529/
片  长 99分钟
导  演 麦克·O·沙贝尔 Michael O. Sajbel
编  剧 麦克·O·沙贝尔 Michael O. Sajbel
主  演 杰克逊·赫斯特 Jackson Hurst
       爱莉·希尔斯 Ali Hillis
       兰斯·亨利克森 Lance Henriksen
       Jensen Buchanan
       Christopher Chisholm
       Catherine Frances
       Mark Wallenfang
       Gina Berceau
       Birdi Davis
       Lily Hansen
       Karl Greene
       Charles Kagen
       丹·奥利弗 Dan Oliver


标  签 美式可骇 | 美国 | 烂片 | 恶心 | 渣滓 | 2017

简  介  

  After living in an old mansion for almost 10 years a family suddenly discovers a ghost-like presence trying to communicate with them. A super-natural thriller.
  1. Video
  2. ID                                       : 1
  3. Format                                   : AVC
  4. Format/Info                              : Advanced Video Codec
  5. Format profile                           : [email protected]
  6. Format settings                          : CABAC / 4 Ref Frames
  7. Format settings, CABAC                   : Yes
  8. Format settings, Reference frames        : 4 frames
  9. Codec ID                                 : V_MPEG4/ISO/AVC
  10. Duration                                 : 1 h 39 min
  11. Bit rate                                 : 5 006 kb/s
  12. Width                                    : 1 904 pixels
  13. Height                                   : 1 064 pixels
  14. Display aspect ratio                     : 16:9
  15. Frame rate mode                          : Constant
  16. Frame rate                               : 23.976 (24000/1001) FPS
  17. Color space                              : YUV
  18. Chroma subsampling                       : 4:2:0
  19. Bit depth                                : 8 bits
  20. Scan type                                : Progressive
  21. Bits/(Pixel*Frame)                       : 0.103
  22. Stream size                              : 3.49 GiB (93%)
  23. Title                                    : Wraith.2017.1080p.WEB-DL.DD5.1.H.264-FGT
  24. Language                                 : English
  25. Default                                  : Yes
  26. Forced                                   : No
  27. Color range                              : Limited
  28. Color primaries                          : BT.709
  29. Transfer characteristics                 : BT.709
  30. Matrix coefficients                      : BT.709

  31. Audio
  32. ID                                       : 2
  33. Format                                   : AC-3
  34. Format/Info                              : Audio Coding 3
  35. Commercial name                          : Dolby Digital
  36. Codec ID                                 : A_AC3
  37. Duration                                 : 1 h 39 min
  38. Bit rate mode                            : Constant
  39. Bit rate                                 : 384 kb/s
  40. Channel(s)                               : 6 channels
  41. Channel layout                           : L R C LFE Ls Rs
  42. Sampling rate                            : 48.0 kHz
  43. Frame rate                               : 31.250 FPS (1536 SPF)
  44. Bit depth                                : 16 bits
  45. Compression mode                         : Lossy
  46. Stream size                              : 274 MiB (7%)
  47. Title                                    : Wraith.2017.1080p.WEB-DL.DD5.1.H.264-FGT
  48. Language                                 : English
  49. Service kind                             : Complete Main
  50. Default                                  : Yes
  51. Forced                                   : No

  52. Text
  53. ID                                       : 3
  54. Format                                   : UTF-8
  55. Codec ID                                 : S_TEXT/UTF8
  56. Codec ID/Info                            : UTF-8 Plain Text
  57. Duration                                 : 1 h 39 min
  58. Bit rate                                 : 40 b/s
  59. Count of elements                        : 1160
  60. Stream size                              : 29.6 KiB (0%)
  61. Language                                 : English
  62. Default                                  : Yes
  63. Forced                                   : No

  64. Menu
  65. 00:00:00.000                             : en:After the Party
  66. 00:06:32.392                             : en:House For Sale
  67. 00:10:40.640                             : en:Happy Birthday
  68. 00:14:40.880                             : en:This House Is Haunted
  69. 00:19:19.158                             : en:Jack Arrives
  70. 00:23:16.395                             : en:Something On My Room
  71. 00:27:59.678                             : en:As Much Your History As Anyone's
  72. 00:30:20.819                             : en:Why Don't You Ask Her?
  73. 00:35:18.116                             : en:An Unwelcome Guest
  74. 00:44:00.638                             : en:Graffiti
  75. 00:48:01.879                             : en:Dress In The Attic
  76. 00:51:00.057                             : en:Ride Home With Jack
  77. 00:56:08.365                             : en:I Want to Live!
  78. 00:58:28.505                             : en:What Is It You're Not Telling Me?
  79. 01:03:40.817                             : en:Lucy Was Right!
  80. 01:08:19.095                             : en:Something Bad Is Going To Happen
  81. 01:15:24.520                             : en:He Was Invited
  82. 01:18:22.698                             : en:It's Too Late For That
  83. 01:24:20.055                             : en:It's Bad Form
  84. 01:27:10.225                             : en:I Once Saw A Spider
  85. 01:30:46.441                             : en:It's Her
  86. 01:33:34.609                             : en:End Credits
  87. 01:39:33.968                             : en:Tag Scene
复制代码

鬼魂 Wraith.2017.1080p.WEB-DL.DD5.1.H264-FGT 3.76GB-2.png 鬼魂 Wraith.2017.1080p.WEB-DL.DD5.1.H264-FGT 3.76GB-3.png 鬼魂 Wraith.2017.1080p.WEB-DL.DD5.1.H264-FGT 3.76GB-4.png






回复

使用道具 举报

懒得打字嘛,点击右侧快捷回复 【右侧内容,后台自定义】
您需要登录后才可以回帖 登录 | 立即加入

本版积分规则

Archiver|小黑屋| 蓝光电影网 |网站地图

Copyright © 2021 Comsenz Inc. Powered by 蓝光电影网

蓝光电影网

本站内容由用户自主分享和转载自互联网,转载目的在于传递更多信息,并不代表本网赞同其观点和对其真实性负责。

如有侵权、违反国家法律政策行为,请联系我们,我们会第一时间及时清除和处理!

举报反馈邮箱:[email protected]

快速回复 返回顶部 返回列表