找回密码

蓝光电影网

查看: 117|回复: 0

[剧情] 文森特和罗茜/搖滾危機 Vincent.N.Roxxy.2016.1080p.WEB-DL.DD5.1.H264-FGT 3.52GB

[复制链接]
蓝光币
382
发表于 2020-1-23 13:53:26 | 显示全部楼层 |阅读模式
文森特和罗茜/搖滾危機 Vincent.N.Roxxy.2016.1080p.WEB-DL.DD5.1.H264-FGT 3.52GB-1.png

译  名 文森特和罗茜 / 搖滾危機(台)
片  名 Vincent N Roxxy
年  代 2016
产  地 美国
类  别 剧情 / 惊悚 / 犯罪
语  言 英语
上映日期 2016-04-18(翠贝卡电影节)
IMDb评分  5.5/10 from 1689 users
IMDb链接  https://www.imdb.com/title/tt3704298
豆瓣评分 0/10 from 0 users
豆瓣链接 https://movie.douban.com/subject/26616094/
片  长 110分钟
导  演 Gary Michael Schultz
编  剧 Gary Michael Schultz / Keith Kjarval
主  演 埃米尔·赫施 Emile Hirsch
       佐伊·克罗维兹 Zo? Kravitz
       佐伊·达奇 Zoey Deutch
       艾莫里·科恩 Emory Cohen
       卡迪小子 Kid Cudi
       博·纳普 Beau Knapp
       杰森·米切尔 Jason Mitchell
       Jeff Gum
       Kim Collins
       Joey Bicicchi


标  签 美国 | 犯罪 | 2016 | 青春 | 美国电影 | 烂片 | 有看点 | 待下载

简  介  

  A small town loner and a rebellious punk rocker unexpectedly fall in love as they are forced on the run and soon discover violence follows them everywhere.
  1. Video
  2. ID                                       : 1
  3. Format                                   : AVC
  4. Format/Info                              : Advanced Video Codec
  5. Format profile                           : [email protected]
  6. Format settings                          : CABAC / 5 Ref Frames
  7. Format settings, CABAC                   : Yes
  8. Format settings, Reference frames        : 5 frames
  9. Codec ID                                 : V_MPEG4/ISO/AVC
  10. Duration                                 : 1 h 41 min
  11. Bit rate                                 : 4 482 kb/s
  12. Width                                    : 1 920 pixels
  13. Height                                   : 792 pixels
  14. Display aspect ratio                     : 2.40:1
  15. Frame rate mode                          : Constant
  16. Frame rate                               : 23.976 (24000/1001) FPS
  17. Color space                              : YUV
  18. Chroma subsampling                       : 4:2:0
  19. Bit depth                                : 8 bits
  20. Scan type                                : Progressive
  21. Bits/(Pixel*Frame)                       : 0.123
  22. Stream size                              : 3.17 GiB (90%)
  23. Title                                    : Vincent.N.Roxxy.2016.1080p.WEB-DL.DD5.1.H264-FGT
  24. Language                                 : English
  25. Default                                  : Yes
  26. Forced                                   : No
  27. Color range                              : Limited
  28. Color primaries                          : BT.709
  29. Transfer characteristics                 : BT.709
  30. Matrix coefficients                      : BT.709

  31. Audio
  32. ID                                       : 2
  33. Format                                   : AC-3
  34. Format/Info                              : Audio Coding 3
  35. Commercial name                          : Dolby Digital
  36. Codec ID                                 : A_AC3
  37. Duration                                 : 1 h 41 min
  38. Bit rate mode                            : Constant
  39. Bit rate                                 : 384 kb/s
  40. Channel(s)                               : 6 channels
  41. Channel layout                           : L R C LFE Ls Rs
  42. Sampling rate                            : 48.0 kHz
  43. Frame rate                               : 31.250 FPS (1536 SPF)
  44. Bit depth                                : 16 bits
  45. Compression mode                         : Lossy
  46. Stream size                              : 278 MiB (8%)
  47. Title                                    : Vincent.N.Roxxy.2016.1080p.WEB-DL.DD5.1.H264-FGT
  48. Language                                 : English
  49. Service kind                             : Complete Main
  50. Default                                  : Yes
  51. Forced                                   : No

  52. Text
  53. ID                                       : 3
  54. Format                                   : UTF-8
  55. Codec ID                                 : S_TEXT/UTF8
  56. Codec ID/Info                            : UTF-8 Plain Text
  57. Language                                 : English
  58. Default                                  : Yes
  59. Forced                                   : No

  60. Menu
  61. 00:00:00.000                             : en:Opening Sequence
  62. 00:05:57.000                             : en:Nothing To Hide
  63. 00:13:52.000                             : en:Tough All Over
  64. 00:19:20.000                             : en:You Okay?
  65. 00:25:50.000                             : en:You Look Great
  66. 00:31:40.000                             : en:Grab A Bite
  67. 00:40:07.000                             : en:Going To Be Explosive
  68. 00:49:00.000                             : en:Who Are You?
  69. 00:56:25.000                             : en:Don't Worry About It
  70. 01:02:29.000                             : en:Leaving Tomorrow
  71. 01:07:23.000                             : en:String Him Up
  72. 01:12:29.000                             : en:I'm Sorry
  73. 01:18:55.000                             : en:I Was So Wrong
  74. 01:24:50.000                             : en:Party
  75. 01:30:45.000                             : en:I Have Your Money
  76. 01:36:15.000                             : en:End Credits
复制代码

文森特和罗茜/搖滾危機 Vincent.N.Roxxy.2016.1080p.WEB-DL.DD5.1.H264-FGT 3.52GB-2.png 文森特和罗茜/搖滾危機 Vincent.N.Roxxy.2016.1080p.WEB-DL.DD5.1.H264-FGT 3.52GB-3.png 文森特和罗茜/搖滾危機 Vincent.N.Roxxy.2016.1080p.WEB-DL.DD5.1.H264-FGT 3.52GB-4.png 文森特和罗茜/搖滾危機 Vincent.N.Roxxy.2016.1080p.WEB-DL.DD5.1.H264-FGT 3.52GB-5.png 文森特和罗茜/搖滾危機 Vincent.N.Roxxy.2016.1080p.WEB-DL.DD5.1.H264-FGT 3.52GB-6.png 文森特和罗茜/搖滾危機 Vincent.N.Roxxy.2016.1080p.WEB-DL.DD5.1.H264-FGT 3.52GB-7.png






回复

使用道具 举报

懒得打字嘛,点击右侧快捷回复 【右侧内容,后台自定义】
您需要登录后才可以回帖 登录 | 立即加入

本版积分规则

Archiver|小黑屋| 蓝光电影网 |网站地图

Copyright © 2021 Comsenz Inc. Powered by 蓝光电影网

蓝光电影网

本站内容由用户自主分享和转载自互联网,转载目的在于传递更多信息,并不代表本网赞同其观点和对其真实性负责。

如有侵权、违反国家法律政策行为,请联系我们,我们会第一时间及时清除和处理!

举报反馈邮箱:[email protected]

快速回复 返回顶部 返回列表