找回密码

蓝光电影网

查看: 129|回复: 0

[喜剧] 女校风波/公主我最大 The.Clique.2008.1080p.WEB-DL.DD5.1.H264-FGT 3.32GB

[复制链接]
蓝光币
426
发表于 2020-1-23 13:57:56 | 显示全部楼层 |阅读模式
女校风浪/公主我最大 The.Clique.2008.1080p.WEB-DL.DD5.1.H264-FGT 3.32GB-1.png

译  名 女校风浪 / 公主我最大 / 奥克特私立女子中学 / 少女五人组
片  名 The Clique
年  代 2008
产  地 美国
类  别 笑剧
语  言 英语
上映日期 2008-11-11
IMDb评分  5.1/10 from 5326 users
IMDb链接  https://www.imdb.com/title/tt1059905
豆瓣评分 6.3/10 from 11711 users
豆瓣链接 https://movie.douban.com/subject/3077826/
片  长 87 分钟
导  演 Michael Lembeck
编  剧 Liz Tigelaar
主  演 Vanessa Marano
       Elizabeth McLaughlin
       Samantha Boscarino
       Ellen Marlow
       Dale Appel
       布丽奇·门德勒 Bridgit Mendler


标  签 青春 | 校园 | 美国 | 美国电影 | 笑剧 | 女校风浪 | 2008 | 电影

简  介  

  少女克莱尔·里昂斯(艾伦·马洛 Ellen Marlow 饰)随怙恃从奥兰多搬到西切斯特,由于尚未找到合适居处,里昂斯一家临时住在朋友威廉姆·布洛克(David Chisum 饰)的家中。布洛克的女儿梅西(伊丽莎白·麦克洛林 Elizabeth McLaughlin 饰)养尊处优,本性声张,她所就读的奥克特私立女子中学更是一所云集了崇高娇蜜斯的黉舍。在她看来,穿着质朴、本性纯真的克莱尔如同一只丑小鸭。分歧的身份和长大情况令两个女孩之间没法建立同等的友谊,梅西和同党们在黉舍里想方想法整治克莱尔,而克莱尔也受虚荣心的驱使,一心结交这群崇高的蜜斯们。在这一进程中,她们各自丢失了自己……
  本片按照美国作家Lisi Harrison同名畅销少女小说的第一部改编。
  1. Video
  2. ID                                       : 1
  3. Format                                   : AVC
  4. Format/Info                              : Advanced Video Codec
  5. Format profile                           : [email protected]
  6. Format settings                          : CABAC / 4 Ref Frames
  7. Format settings, CABAC                   : Yes
  8. Format settings, Reference frames        : 4 frames
  9. Codec ID                                 : V_MPEG4/ISO/AVC
  10. Duration                                 : 1 h 27 min
  11. Bit rate                                 : 5 053 kb/s
  12. Width                                    : 1 920 pixels
  13. Height                                   : 1 080 pixels
  14. Display aspect ratio                     : 16:9
  15. Frame rate mode                          : Constant
  16. Frame rate                               : 23.976 (23976/1000) FPS
  17. Color space                              : YUV
  18. Chroma subsampling                       : 4:2:0
  19. Bit depth                                : 8 bits
  20. Scan type                                : Progressive
  21. Bits/(Pixel*Frame)                       : 0.102
  22. Stream size                              : 3.08 GiB (93%)
  23. Title                                    : The.Clique.2008.1080p.WEB-DL.DD5.1.H.264-FGT
  24. Language                                 : English
  25. Default                                  : Yes
  26. Forced                                   : No
  27. Color range                              : Limited
  28. Color primaries                          : BT.709
  29. Transfer characteristics                 : BT.709
  30. Matrix coefficients                      : BT.709

  31. Audio
  32. ID                                       : 2
  33. Format                                   : AC-3
  34. Format/Info                              : Audio Coding 3
  35. Commercial name                          : Dolby Digital
  36. Codec ID                                 : A_AC3
  37. Duration                                 : 1 h 27 min
  38. Bit rate mode                            : Constant
  39. Bit rate                                 : 384 kb/s
  40. Channel(s)                               : 6 channels
  41. Channel layout                           : L R C LFE Ls Rs
  42. Sampling rate                            : 48.0 kHz
  43. Frame rate                               : 31.250 FPS (1536 SPF)
  44. Bit depth                                : 16 bits
  45. Compression mode                         : Lossy
  46. Stream size                              : 240 MiB (7%)
  47. Title                                    : The.Clique.2008.1080p.WEB-DL.DD5.1.H.264-FGT
  48. Language                                 : English
  49. Service kind                             : Complete Main
  50. Default                                  : Yes
  51. Forced                                   : No

  52. Text
  53. ID                                       : 3
  54. Format                                   : UTF-8
  55. Codec ID                                 : S_TEXT/UTF8
  56. Codec ID/Info                            : UTF-8 Plain Text
  57. Duration                                 : 1 h 26 min
  58. Bit rate                                 : 78 b/s
  59. Count of elements                        : 1767
  60. Stream size                              : 49.7 KiB (0%)
  61. Language                                 : English
  62. Default                                  : Yes
  63. Forced                                   : No

  64. Menu
  65. 00:00:00.000                             : en:Chapter 1
  66. 00:10:00.000                             : en:Chapter 2
  67. 00:20:00.000                             : en:Chapter 3
  68. 00:30:00.000                             : en:Chapter 4
  69. 00:40:00.000                             : en:Chapter 5
  70. 00:50:00.000                             : en:Chapter 6
  71. 01:00:00.000                             : en:Chapter 7
  72. 01:10:00.000                             : en:Chapter 8
  73. 01:20:00.000                             : en:Chapter 9
复制代码

女校风浪/公主我最大 The.Clique.2008.1080p.WEB-DL.DD5.1.H264-FGT 3.32GB-2.png 女校风浪/公主我最大 The.Clique.2008.1080p.WEB-DL.DD5.1.H264-FGT 3.32GB-3.png 女校风浪/公主我最大 The.Clique.2008.1080p.WEB-DL.DD5.1.H264-FGT 3.32GB-4.png






回复

使用道具 举报

懒得打字嘛,点击右侧快捷回复 【右侧内容,后台自定义】
您需要登录后才可以回帖 登录 | 立即加入

本版积分规则

Archiver|小黑屋| 蓝光电影网 |网站地图

Copyright © 2021 Comsenz Inc. Powered by 蓝光电影网

蓝光电影网

本站内容由用户自主分享和转载自互联网,转载目的在于传递更多信息,并不代表本网赞同其观点和对其真实性负责。

如有侵权、违反国家法律政策行为,请联系我们,我们会第一时间及时清除和处理!

举报反馈邮箱:[email protected]

快速回复 返回顶部 返回列表