找回密码

蓝光电影网

查看: 123|回复: 0

[惊悚] 走得太远 Taken.Too.Far.2017.1080p.WEB-DL.DD5.1.H264-FGT 3.55GB

[复制链接]
蓝光币
382
发表于 2020-1-23 14:00:29 | 显示全部楼层 |阅读模式
走得太远 Taken.Too.Far.2017.1080p.WEB-DL.DD5.1.H264-FGT 3.55GB-1.png

译  名 走得太远
片  名 Taken Too Far
年  代 2017
产  地 美国
类  别 惊悚
语  言 英语
上映日期 2017-04-27(美国)
IMDb评分  4.7/10 from 159 users
IMDb链接  https://www.imdb.com/title/tt5582308
豆瓣评分 0/10 from 0 users
豆瓣链接 https://movie.douban.com/subject/27046625/
片  长 92分钟
导  演 Paul Lynch
编  剧 Susan R. Rodgers / Alex Saveliev
主  演 Beverley Mitchell
       Christina Cox
       Jack Fulton
       Kathryn Greenwood
       Miranda Edwards
       Oluniké Adeliyi
       Jenna Warren
       Paula Rivera
       Rhys Wyn Trenhaile
       Dru Viergever
       Russell Yuen
       Milton Barnes
       Dan Duran
       Doug Murray
       Roger Dunn
       Katie Messina
       Hailey Kittle
       Dalton Derek
       Trisha Echeverria


标  签 犯罪 | 悬疑 | 烂片 | 长大 | 笑剧

简  介  

  A jealous dance mom takes extreme measures to ensure her daughter wins a scholarship to an exclusive dance academy. But the victim's mother will do whatever necessary to protect her own daughter from the rival mom's evil scheme.
  1. Video
  2. ID                                       : 1
  3. Format                                   : AVC
  4. Format/Info                              : Advanced Video Codec
  5. Format profile                           : [email protected]
  6. Format settings                          : CABAC / 4 Ref Frames
  7. Format settings, CABAC                   : Yes
  8. Format settings, Reference frames        : 4 frames
  9. Codec ID                                 : V_MPEG4/ISO/AVC
  10. Duration                                 : 1 h 32 min
  11. Bit rate                                 : 5 029 kb/s
  12. Width                                    : 1 920 pixels
  13. Height                                   : 1 080 pixels
  14. Display aspect ratio                     : 16:9
  15. Frame rate mode                          : Constant
  16. Frame rate                               : 23.976 (24000/1001) FPS
  17. Color space                              : YUV
  18. Chroma subsampling                       : 4:2:0
  19. Bit depth                                : 8 bits
  20. Scan type                                : Progressive
  21. Bits/(Pixel*Frame)                       : 0.101
  22. Stream size                              : 3.23 GiB (91%)
  23. Title                                    : Taken.Too.Far.2017.1080p.WEB-DL.DD5.1.H264-FGT
  24. Language                                 : English
  25. Default                                  : Yes
  26. Forced                                   : No
  27. Color range                              : Limited
  28. Color primaries                          : BT.709
  29. Transfer characteristics                 : BT.709
  30. Matrix coefficients                      : BT.709

  31. Audio
  32. ID                                       : 2
  33. Format                                   : AC-3
  34. Format/Info                              : Audio Coding 3
  35. Commercial name                          : Dolby Digital
  36. Codec ID                                 : A_AC3
  37. Duration                                 : 1 h 32 min
  38. Bit rate mode                            : Constant
  39. Bit rate                                 : 384 kb/s
  40. Channel(s)                               : 6 channels
  41. Channel layout                           : L R C LFE Ls Rs
  42. Sampling rate                            : 48.0 kHz
  43. Frame rate                               : 31.250 FPS (1536 SPF)
  44. Bit depth                                : 16 bits
  45. Compression mode                         : Lossy
  46. Stream size                              : 253 MiB (7%)
  47. Title                                    : Taken.Too.Far.2017.1080p.WEB-DL.DD5.1.H264-FGT
  48. Language                                 : English
  49. Service kind                             : Complete Main
  50. Default                                  : Yes
  51. Forced                                   : No

  52. Text
  53. ID                                       : 3
  54. Format                                   : UTF-8
  55. Codec ID                                 : S_TEXT/UTF8
  56. Codec ID/Info                            : UTF-8 Plain Text
  57. Language                                 : English
  58. Default                                  : Yes
  59. Forced                                   : No

  60. Menu
  61. 00:00:00.000                             : en:Opening Sequence
  62. 00:05:26.000                             : en:All About Teamwork
  63. 00:10:19.000                             : en:She Cheated
  64. 00:14:58.000                             : en:We Can Help Each Other
  65. 00:19:44.000                             : en:That's Another Story
  66. 00:26:01.000                             : en:She's The Best
  67. 00:32:29.000                             : en:You Don't Even Care
  68. 00:38:37.000                             : en:Do Your Best
  69. 00:43:20.000                             : en:What's That Smell?
  70. 00:50:34.000                             : en:Help Me Mom
  71. 00:55:31.000                             : en:Where Are You Going?
  72. 01:02:11.000                             : en:I'm Trying To Help
  73. 01:08:23.000                             : en:Call The Police
  74. 01:13:46.000                             : en:We Appreciate Your Cooperation
  75. 01:20:39.000                             : en:And The Winner Is?
  76. 01:28:30.000                             : en:End Credits
复制代码

走得太远 Taken.Too.Far.2017.1080p.WEB-DL.DD5.1.H264-FGT 3.55GB-1.png 走得太远 Taken.Too.Far.2017.1080p.WEB-DL.DD5.1.H264-FGT 3.55GB-3.png 走得太远 Taken.Too.Far.2017.1080p.WEB-DL.DD5.1.H264-FGT 3.55GB-2.png 走得太远 Taken.Too.Far.2017.1080p.WEB-DL.DD5.1.H264-FGT 3.55GB-5.png 走得太远 Taken.Too.Far.2017.1080p.WEB-DL.DD5.1.H264-FGT 3.55GB-6.png 走得太远 Taken.Too.Far.2017.1080p.WEB-DL.DD5.1.H264-FGT 3.55GB-7.png






回复

使用道具 举报

懒得打字嘛,点击右侧快捷回复 【右侧内容,后台自定义】
您需要登录后才可以回帖 登录 | 立即加入

本版积分规则

Archiver|小黑屋| 蓝光电影网 |网站地图

Copyright © 2021 Comsenz Inc. Powered by 蓝光电影网

蓝光电影网

本站内容由用户自主分享和转载自互联网,转载目的在于传递更多信息,并不代表本网赞同其观点和对其真实性负责。

如有侵权、违反国家法律政策行为,请联系我们,我们会第一时间及时清除和处理!

举报反馈邮箱:[email protected]

快速回复 返回顶部 返回列表