找回密码

蓝光电影网

查看: 207|回复: 0

[纪录] 追浪:莱尔德·汉密尔顿的一生/冲浪潮人 Take.Every.Wave.The.Life.of.Laird.Hamilton.2017.1080p.WEB-DL.DD5.1.H264-FGT 4.52GB

[复制链接]
蓝光币
426
发表于 2020-1-23 14:03:29 | 显示全部楼层 |阅读模式
追浪:莱尔德·汉密尔顿的平生/冲浪潮人 Take.Every.Wave.The.Life.of.Laird.Hamilton.2017.1080p.WEB-DL.DD5.1.H264-FGT 4.52GB-1.png

译  名 追浪:莱尔德·汉密尔顿的平生 / 冲浪潮人(台)
片  名 Take Every Wave: The Life of Laird Hamilton
年  代 2017
产  地 美国
类  别 记载片 / 活动
语  言 英语
上映日期 2017-01-22(圣丹斯电影节)
IMDb评分  7.3/10 from 407 users
IMDb链接  https://www.imdb.com/title/tt6333092
豆瓣评分 0/10 from 0 users
豆瓣链接 https://movie.douban.com/subject/27064673/
片  长 118分钟
导  演 罗瑞·肯尼迪 Rory Kennedy
编  剧 Jack Youngelson / 马克·贝利 Mark Bailey

标  签 记载片 | 冲浪 | 活动 | 美国 | 体育 | *活动 | 自然 | 电影节

简  介  

  影片全方位的记录了美国顶级出色的冲浪运带动莱尔德·汉密尔顿的平生。莱尔德汉密尔顿的平生,记录了冲浪运带动莱尔德汉密尔顿的非凡生活和传奇生活。虽然冲浪行业经常被鄙夷或疏忽其重要性,但莱尔德是一个怪异的体育偶像——一个拒绝在专业范畴介入一切合作角逐的运带动,但在历史上从未有过其他的人物。
  莱尔德的列传故事是在考艾岛冬季冲浪季节的布景下报告的,厄尔尼诺的风暴系统威胁着几十年来最大的海浪。在加州南部、百慕大群岛和考艾岛拍摄确今世垂直场景中,每一波海浪都将曩昔和现在的场景交织在一路,构成了一幅密切而引人注视标超级明星运带动的肖像。贯串始终的是对莱尔德的一次深度的小我访谈,以及与家人、朋友、合作者和最领会他的毁谤者的说话。
  1. Video
  2. ID                                       : 1
  3. Format                                   : AVC
  4. Format/Info                              : Advanced Video Codec
  5. Format profile                           : [email protected]
  6. Format settings                          : CABAC / 4 Ref Frames
  7. Format settings, CABAC                   : Yes
  8. Format settings, Reference frames        : 4 frames
  9. Codec ID                                 : V_MPEG4/ISO/AVC
  10. Duration                                 : 1 h 57 min
  11. Bit rate                                 : 5 107 kb/s
  12. Width                                    : 1 920 pixels
  13. Height                                   : 1 080 pixels
  14. Display aspect ratio                     : 16:9
  15. Frame rate mode                          : Constant
  16. Frame rate                               : 23.976 FPS
  17. Color space                              : YUV
  18. Chroma subsampling                       : 4:2:0
  19. Bit depth                                : 8 bits
  20. Scan type                                : Progressive
  21. Bits/(Pixel*Frame)                       : 0.103
  22. Stream size                              : 4.20 GiB (93%)
  23. Title                                    : Take.Every.Wave.The.Life.of.Laird.Hamilton.2017.DOCU.1080p.WEB-DL.DD5.1.H.264-FGT
  24. Language                                 : English
  25. Default                                  : Yes
  26. Forced                                   : No
  27. Color range                              : Limited
  28. Color primaries                          : BT.709
  29. Transfer characteristics                 : BT.709
  30. Matrix coefficients                      : BT.709

  31. Audio
  32. ID                                       : 2
  33. Format                                   : AC-3
  34. Format/Info                              : Audio Coding 3
  35. Commercial name                          : Dolby Digital
  36. Codec ID                                 : A_AC3
  37. Duration                                 : 1 h 57 min
  38. Bit rate mode                            : Constant
  39. Bit rate                                 : 384 kb/s
  40. Channel(s)                               : 6 channels
  41. Channel layout                           : L R C LFE Ls Rs
  42. Sampling rate                            : 48.0 kHz
  43. Frame rate                               : 31.250 FPS (1536 SPF)
  44. Bit depth                                : 16 bits
  45. Compression mode                         : Lossy
  46. Stream size                              : 323 MiB (7%)
  47. Title                                    : Take.Every.Wave.The.Life.of.Laird.Hamilton.2017.DOCU.1080p.WEB-DL.DD5.1.H.264-FGT
  48. Language                                 : English
  49. Service kind                             : Complete Main
  50. Default                                  : Yes
  51. Forced                                   : No

  52. Text
  53. ID                                       : 3
  54. Format                                   : UTF-8
  55. Codec ID                                 : S_TEXT/UTF8
  56. Codec ID/Info                            : UTF-8 Plain Text
  57. Duration                                 : 1 h 54 min
  58. Bit rate                                 : 154 b/s
  59. Count of elements                        : 2118
  60. Stream size                              : 129 KiB (0%)
  61. Language                                 : English
  62. Default                                  : Yes
  63. Forced                                   : No

  64. Menu
  65. 00:00:00.000                             : en:1
  66. 00:11:25.769                             : en:2
  67. 00:22:25.887                             : en:3
  68. 00:34:04.460                             : en:4
  69. 00:46:28.787                             : en:5
  70. 00:58:28.673                             : en:6
  71. 01:06:45.086                             : en:7
  72. 01:17:27.812                             : en:8
  73. 01:28:57.251                             : en:9
  74. 01:38:30.240                             : en:10
  75. 01:54:44.797                             : en:11
复制代码

追浪:莱尔德·汉密尔顿的平生/冲浪潮人 Take.Every.Wave.The.Life.of.Laird.Hamilton.2017.1080p.WEB-DL.DD5.1.H264-FGT 4.52GB-2.png 追浪:莱尔德·汉密尔顿的平生/冲浪潮人 Take.Every.Wave.The.Life.of.Laird.Hamilton.2017.1080p.WEB-DL.DD5.1.H264-FGT 4.52GB-3.png 追浪:莱尔德·汉密尔顿的平生/冲浪潮人 Take.Every.Wave.The.Life.of.Laird.Hamilton.2017.1080p.WEB-DL.DD5.1.H264-FGT 4.52GB-4.png 追浪:莱尔德·汉密尔顿的平生/冲浪潮人 Take.Every.Wave.The.Life.of.Laird.Hamilton.2017.1080p.WEB-DL.DD5.1.H264-FGT 4.52GB-5.png 追浪:莱尔德·汉密尔顿的平生/冲浪潮人 Take.Every.Wave.The.Life.of.Laird.Hamilton.2017.1080p.WEB-DL.DD5.1.H264-FGT 4.52GB-6.png 追浪:莱尔德·汉密尔顿的平生/冲浪潮人 Take.Every.Wave.The.Life.of.Laird.Hamilton.2017.1080p.WEB-DL.DD5.1.H264-FGT 4.52GB-7.png






回复

使用道具 举报

懒得打字嘛,点击右侧快捷回复 【右侧内容,后台自定义】
您需要登录后才可以回帖 登录 | 立即加入

本版积分规则

Archiver|小黑屋| 蓝光电影网 |网站地图

Copyright © 2021 Comsenz Inc. Powered by 蓝光电影网

蓝光电影网

本站内容由用户自主分享和转载自互联网,转载目的在于传递更多信息,并不代表本网赞同其观点和对其真实性负责。

如有侵权、违反国家法律政策行为,请联系我们,我们会第一时间及时清除和处理!

举报反馈邮箱:[email protected]

快速回复 返回顶部 返回列表