找回密码

蓝光电影网

查看: 88|回复: 0

[喜剧] 小捣蛋闯天关 Slappy.And.The.Stinkers.1998.1080p.WEB-DL.DD5.1.H264-FGT 3.03GB

[复制链接]
蓝光币
382
发表于 2020-1-23 14:04:58 | 显示全部楼层 |阅读模式
小捣鬼闯天关 Slappy.And.The.Stinkers.1998.1080p.WEB-DL.DD5.1.H264-FGT 3.03GB-1.png

译  名 小捣鬼闯天关
片  名 Slappy and the Stinkers
年  代 1998
产  地 美国
类  别 笑剧
语  言 英语
上映日期 1998-01-23
IMDb评分  5.0/10 from 1017 users
IMDb链接  https://www.imdb.com/title/tt0120213
豆瓣评分 0/10 from 0 users
豆瓣链接 https://movie.douban.com/subject/2989635/
导  演 Barnet Kellman
编  剧 Robert Wolterstorff / Mike Scott

标  签 美国 | 搞笑 | 儿童 | 美国电影 | HBO | 笑剧 | 动物 | 诙谐

简  介  

  炎天應是盡情顽耍的日子,但達莫學院嚴厲狂妄的校長摩根(黃榮亮),卻替二年級的學生放置了有趣的歌劇欣賞課,五個由洛伊(布朗森平丘)帶領的頑皮學生耐不住無聊,逃課进来顽耍,引发了一陣混亂,被摩根校長稱為〃小搗蛋〃。這五個小搗蛋雖屢遭校長嚴厲警告,卻仍變本加厲,製造出更多的麻煩。一日,學校前往陆地公園作校外教學,他們看到一隻叫〃皮皮〃的海獅一臉憂鬱。於是決定操纵校車將牠偷運出水族館,放在校長的浴缸中。不意校工竟誤以為〃皮皮〃是隻庞大的地鼠而筹算殺死牠,更糟的是,一個賊在此時偷走了死賴皮,計劃將牠賣到馬戲團!當五個小搗蛋得知此事後,決定立即展開救济行動,平時總是成事不敷敗事有餘的小搗蛋們,這回能完成任務嗎?
  1. Video
  2. ID                                       : 1
  3. Format                                   : AVC
  4. Format/Info                              : Advanced Video Codec
  5. Format profile                           : [email protected]
  6. Format settings                          : CABAC / 4 Ref Frames
  7. Format settings, CABAC                   : Yes
  8. Format settings, Reference frames        : 4 frames
  9. Codec ID                                 : V_MPEG4/ISO/AVC
  10. Duration                                 : 1 h 18 min
  11. Bit rate                                 : 5 041 kb/s
  12. Width                                    : 1 914 pixels
  13. Height                                   : 1 072 pixels
  14. Display aspect ratio                     : 16:9
  15. Frame rate mode                          : Constant
  16. Frame rate                               : 23.976 (24000/1001) FPS
  17. Color space                              : YUV
  18. Chroma subsampling                       : 4:2:0
  19. Bit depth                                : 8 bits
  20. Scan type                                : Progressive
  21. Bits/(Pixel*Frame)                       : 0.102
  22. Stream size                              : 2.76 GiB (91%)
  23. Title                                    : Slappy.And.The.Stinkers.1998.1080p.WEB-DL.DD5.1.H264-FGT
  24. Language                                 : English
  25. Default                                  : Yes
  26. Forced                                   : No
  27. Color range                              : Limited
  28. Color primaries                          : BT.709
  29. Transfer characteristics                 : BT.709
  30. Matrix coefficients                      : BT.709

  31. Audio
  32. ID                                       : 2
  33. Format                                   : AC-3
  34. Format/Info                              : Audio Coding 3
  35. Commercial name                          : Dolby Digital
  36. Codec ID                                 : A_AC3
  37. Duration                                 : 1 h 18 min
  38. Bit rate mode                            : Constant
  39. Bit rate                                 : 384 kb/s
  40. Channel(s)                               : 6 channels
  41. Channel layout                           : L R C LFE Ls Rs
  42. Sampling rate                            : 48.0 kHz
  43. Frame rate                               : 31.250 FPS (1536 SPF)
  44. Bit depth                                : 16 bits
  45. Compression mode                         : Lossy
  46. Stream size                              : 216 MiB (7%)
  47. Title                                    : Slappy.And.The.Stinkers.1998.1080p.WEB-DL.DD5.1.H264-FGT
  48. Language                                 : English
  49. Service kind                             : Complete Main
  50. Default                                  : Yes
  51. Forced                                   : No

  52. Menu
  53. 00:00:00.000                             : en:Start
  54. 00:07:47.000                             : en:The Stinkers
  55. 00:13:09.000                             : en:Aquarium
  56. 00:19:29.000                             : en:Free Slappy
  57. 00:25:45.000                             : en:Comforts of Home
  58. 00:31:09.000                             : en:New Digs
  59. 00:38:47.000                             : en:Gopher Hunt
  60. 00:41:15.000                             : en:Back to the Ocean
  61. 00:44:52.000                             : en:The Fair
  62. 00:54:09.000                             : en:Rescue Plan
  63. 01:00:51.000                             : en:Saving Slappy
  64. 01:07:37.000                             : en:Fall to Freedom
复制代码

小捣鬼闯天关 Slappy.And.The.Stinkers.1998.1080p.WEB-DL.DD5.1.H264-FGT 3.03GB-2.png 小捣鬼闯天关 Slappy.And.The.Stinkers.1998.1080p.WEB-DL.DD5.1.H264-FGT 3.03GB-3.png 小捣鬼闯天关 Slappy.And.The.Stinkers.1998.1080p.WEB-DL.DD5.1.H264-FGT 3.03GB-4.png 小捣鬼闯天关 Slappy.And.The.Stinkers.1998.1080p.WEB-DL.DD5.1.H264-FGT 3.03GB-5.png 小捣鬼闯天关 Slappy.And.The.Stinkers.1998.1080p.WEB-DL.DD5.1.H264-FGT 3.03GB-6.png 小捣鬼闯天关 Slappy.And.The.Stinkers.1998.1080p.WEB-DL.DD5.1.H264-FGT 3.03GB-7.png






回复

使用道具 举报

懒得打字嘛,点击右侧快捷回复 【右侧内容,后台自定义】
您需要登录后才可以回帖 登录 | 立即加入

本版积分规则

Archiver|小黑屋| 蓝光电影网 |网站地图

Copyright © 2021 Comsenz Inc. Powered by 蓝光电影网

蓝光电影网

本站内容由用户自主分享和转载自互联网,转载目的在于传递更多信息,并不代表本网赞同其观点和对其真实性负责。

如有侵权、违反国家法律政策行为,请联系我们,我们会第一时间及时清除和处理!

举报反馈邮箱:[email protected]

快速回复 返回顶部 返回列表