找回密码

蓝光电影网

查看: 485|回复: 0

[动画] 史酷比之神鬼迷城 Scooby.Doo.in.Wheres.My.Mummy.2005.1080p.WEB-DL.DD5.1.H264-FGT 2.80GB

[复制链接]
蓝光币
382
发表于 2020-1-23 14:07:35 | 显示全部楼层 |阅读模式
史酷比之神鬼迷城 Scooby.Doo.in.Wheres.My.Mummy.2005.1080p.WEB-DL.DD5.1.H264-FGT 2.80GB-1.png

译  名 史酷比之神鬼迷城
片  名 Scooby Doo in Where's My Mummy?
年  代 2005
产  地 美国
类  别 动画 / 悬疑 / 家庭 / 奇异 / 冒险
语  言 英语
上映日期 2005-02-14(美国)
IMDb评分  6.7/10 from 2427 users
IMDb链接  https://www.imdb.com/title/tt0480461
豆瓣评分 0/10 from 0 users
豆瓣链接 https://movie.douban.com/subject/5212996/
片  长 75 分钟
导  演 Joe Sichta
编  剧 Joseph Barbera

标  签 美国 | 2005 | ~adventure | @Animation | 长片 | ~Adventure | @anime

简  介  

  暂无相关剧情先容
  1. Video
  2. ID                                       : 1
  3. Format                                   : AVC
  4. Format/Info                              : Advanced Video Codec
  5. Format profile                           : [email protected]
  6. Format settings                          : CABAC / 4 Ref Frames
  7. Format settings, CABAC                   : Yes
  8. Format settings, Reference frames        : 4 frames
  9. Format settings, GOP                     : N=2
  10. Codec ID                                 : V_MPEG4/ISO/AVC
  11. Duration                                 : 1 h 14 min
  12. Bit rate                                 : 4 833 kb/s
  13. Width                                    : 1 920 pixels
  14. Height                                   : 1 080 pixels
  15. Display aspect ratio                     : 16:9
  16. Frame rate mode                          : Constant
  17. Frame rate                               : 23.976 FPS
  18. Color space                              : YUV
  19. Chroma subsampling                       : 4:2:0
  20. Bit depth                                : 8 bits
  21. Scan type                                : Progressive
  22. Bits/(Pixel*Frame)                       : 0.097
  23. Stream size                              : 2.51 GiB (90%)
  24. Language                                 : English
  25. Default                                  : Yes
  26. Forced                                   : No
  27. Color range                              : Limited
  28. Color primaries                          : BT.709
  29. Transfer characteristics                 : BT.709
  30. Matrix coefficients                      : BT.709

  31. Audio
  32. ID                                       : 2
  33. Format                                   : AC-3
  34. Format/Info                              : Audio Coding 3
  35. Commercial name                          : Dolby Digital
  36. Codec ID                                 : A_AC3
  37. Duration                                 : 1 h 14 min
  38. Bit rate mode                            : Constant
  39. Bit rate                                 : 448 kb/s
  40. Channel(s)                               : 6 channels
  41. Channel layout                           : L R C LFE Ls Rs
  42. Sampling rate                            : 48.0 kHz
  43. Frame rate                               : 31.250 FPS (1536 SPF)
  44. Bit depth                                : 16 bits
  45. Compression mode                         : Lossy
  46. Stream size                              : 238 MiB (8%)
  47. Language                                 : English
  48. Service kind                             : Complete Main
  49. Default                                  : Yes
  50. Forced                                   : No

  51. Text
  52. ID                                       : 3
  53. Format                                   : UTF-8
  54. Codec ID                                 : S_TEXT/UTF8
  55. Codec ID/Info                            : UTF-8 Plain Text
  56. Language                                 : English
  57. Default                                  : Yes
  58. Forced                                   : No

  59. Menu
  60. 00:00:00.000                             : en:Accursed Credits.
  61. 00:06:28.000                             : en:Triple-A rescue.
  62. 00:12:17.000                             : en:Tomb raider.
  63. 00:21:18.000                             : en:Curse unleashed.
  64. 00:26:42.000                             : en:Army of the undead.
  65. 00:33:30.000                             : en:Ascoobis and Shaggenkhamen.
  66. 00:37:02.000                             : en:Lotsa locusts.
  67. 00:40:42.000                             : en:Purse snatcher.
  68. 00:44:25.000                             : en:Scorpion God shenanigans.
  69. 00:51:54.000                             : en:Here for the party.
  70. 00:57:08.000                             : en:Doubly Cleopatrafied.
  71. 01:02:50.000                             : en:Spreading the wealth.
  72. 01:08:10.000                             : en:Nose job.
  73. 01:11:16.000                             : en:End Credits.
复制代码

史酷比之神鬼迷城 Scooby.Doo.in.Wheres.My.Mummy.2005.1080p.WEB-DL.DD5.1.H264-FGT 2.80GB-2.png 史酷比之神鬼迷城 Scooby.Doo.in.Wheres.My.Mummy.2005.1080p.WEB-DL.DD5.1.H264-FGT 2.80GB-3.png 史酷比之神鬼迷城 Scooby.Doo.in.Wheres.My.Mummy.2005.1080p.WEB-DL.DD5.1.H264-FGT 2.80GB-4.png 史酷比之神鬼迷城 Scooby.Doo.in.Wheres.My.Mummy.2005.1080p.WEB-DL.DD5.1.H264-FGT 2.80GB-5.png 史酷比之神鬼迷城 Scooby.Doo.in.Wheres.My.Mummy.2005.1080p.WEB-DL.DD5.1.H264-FGT 2.80GB-6.png 史酷比之神鬼迷城 Scooby.Doo.in.Wheres.My.Mummy.2005.1080p.WEB-DL.DD5.1.H264-FGT 2.80GB-7.png






回复

使用道具 举报

懒得打字嘛,点击右侧快捷回复 【右侧内容,后台自定义】
您需要登录后才可以回帖 登录 | 立即加入

本版积分规则

Archiver|小黑屋| 蓝光电影网 |网站地图

Copyright © 2021 Comsenz Inc. Powered by 蓝光电影网

蓝光电影网

本站内容由用户自主分享和转载自互联网,转载目的在于传递更多信息,并不代表本网赞同其观点和对其真实性负责。

如有侵权、违反国家法律政策行为,请联系我们,我们会第一时间及时清除和处理!

举报反馈邮箱:[email protected]

快速回复 返回顶部 返回列表