找回密码

蓝光电影网

查看: 178|回复: 0

[喜剧] 丧尸全城/15区 Range.15.2016.1080p.WEB-DL.DD5.1.H264-FGT 3.06GB

[复制链接]
蓝光币
426
发表于 2020-1-23 14:13:05 | 显示全部楼层 |阅读模式
丧尸全城/15区 Range.15.2016.1080p.WEB-DL.DD5.1.H264-FGT 3.06GB-1.png

译  名 丧尸全城 / 15区 / 亏机僵尸末日
片  名 Range 15
年  代 2016
产  地 美国
类  别 笑剧 / 可骇
语  言 英语
上映日期 2016-07-04(美国)
IMDb评分  5.0/10 from 4964 users
IMDb链接  https://www.imdb.com/title/tt4687276
豆瓣评分 3.3/10 from 316 users
豆瓣链接 https://movie.douban.com/subject/26704611/
片  长 89分钟
导  演 Ross Patterson
编  剧 Billy Jay / Nick Palmisciano / Ross Patterson
主  演 Sean Astin
       Danny Trejo


标  签 丧尸 | 丧尸片 | 美国 | 笑剧 | 可骇 | 美国电影 | 黑色诙谐 | 烂片

简  介  

  五个退伍老兵,贝斯特、尼克、罗科、杰克与充气娃娃形影不离的高莫,成了陌头混混,一次被治安警拘留,谁知当晚爆发僵尸怒潮。五人杀出牢房,偶遇一临死军官,军官死前激烈他们一定到15区。五人在外边,还巧遇火辣的埃莉诺、茜瑟。因而,五男两女全部武装后起头无厘搞笑的征程,出格是罗科能与女僵尸嗨休。途中,他们无疑发现瓶装威士忌加上精液,倾泻僵尸身上,然后扑灭,能治愈僵尸病毒。军事基地军官获知后,要求他们去有科学家的15区,将此发现奉告那些科学家。因而,继续无厘头搞笑的征程……
  1. Video
  2. ID                                       : 1
  3. Format                                   : AVC
  4. Format/Info                              : Advanced Video Codec
  5. Format profile                           : [email protected]
  6. Format settings                          : CABAC / 5 Ref Frames
  7. Format settings, CABAC                   : Yes
  8. Format settings, Reference frames        : 5 frames
  9. Codec ID                                 : V_MPEG4/ISO/AVC
  10. Duration                                 : 1 h 29 min
  11. Bit rate                                 : 4 406 kb/s
  12. Width                                    : 1 916 pixels
  13. Height                                   : 802 pixels
  14. Display aspect ratio                     : 2.40:1
  15. Frame rate mode                          : Constant
  16. Frame rate                               : 23.976 FPS
  17. Color space                              : YUV
  18. Chroma subsampling                       : 4:2:0
  19. Bit depth                                : 8 bits
  20. Scan type                                : Progressive
  21. Bits/(Pixel*Frame)                       : 0.120
  22. Stream size                              : 2.76 GiB (90%)
  23. Title                                    : Range.15.2016.1080p.WEB-DL.DD5.1.H264-FGT
  24. Language                                 : English
  25. Default                                  : Yes
  26. Forced                                   : No
  27. Color range                              : Limited
  28. Color primaries                          : BT.709
  29. Transfer characteristics                 : BT.709
  30. Matrix coefficients                      : BT.709

  31. Audio
  32. ID                                       : 2
  33. Format                                   : AC-3
  34. Format/Info                              : Audio Coding 3
  35. Commercial name                          : Dolby Digital
  36. Codec ID                                 : A_AC3
  37. Duration                                 : 1 h 29 min
  38. Bit rate mode                            : Constant
  39. Bit rate                                 : 384 kb/s
  40. Channel(s)                               : 6 channels
  41. Channel layout                           : L R C LFE Ls Rs
  42. Sampling rate                            : 48.0 kHz
  43. Frame rate                               : 31.250 FPS (1536 SPF)
  44. Bit depth                                : 16 bits
  45. Compression mode                         : Lossy
  46. Stream size                              : 246 MiB (8%)
  47. Title                                    : Range.15.2016.1080p.WEB-DL.DD5.1.H264-FGT
  48. Language                                 : English
  49. Service kind                             : Complete Main
  50. Default                                  : Yes
  51. Forced                                   : No

  52. Text
  53. ID                                       : 3
  54. Format                                   : UTF-8
  55. Codec ID                                 : S_TEXT/UTF8
  56. Codec ID/Info                            : UTF-8 Plain Text
  57. Language                                 : English
  58. Default                                  : Yes
  59. Forced                                   : No

  60. Menu
  61. 00:00:00.000                             : en:Chapter 01
  62. 00:06:02.278                             : en:Chapter 02
  63. 00:14:31.745                             : en:Chapter 03
  64. 00:23:02.672                             : en:Chapter 04
  65. 00:32:06.507                             : en:Chapter 05
  66. 00:41:45.502                             : en:Chapter 06
  67. 00:50:11.591                             : en:Chapter 07
  68. 00:56:14.870                             : en:Chapter 08
  69. 01:03:32.474                             : en:Chapter 09
  70. 01:10:03.031                             : en:Chapter 10
  71. 01:15:45.373                             : en:Chapter 11
  72. 01:22:19.767                             : en:Chapter 12
复制代码

丧尸全城/15区 Range.15.2016.1080p.WEB-DL.DD5.1.H264-FGT 3.06GB-2.png 丧尸全城/15区 Range.15.2016.1080p.WEB-DL.DD5.1.H264-FGT 3.06GB-3.png 丧尸全城/15区 Range.15.2016.1080p.WEB-DL.DD5.1.H264-FGT 3.06GB-1.png 丧尸全城/15区 Range.15.2016.1080p.WEB-DL.DD5.1.H264-FGT 3.06GB-5.png 丧尸全城/15区 Range.15.2016.1080p.WEB-DL.DD5.1.H264-FGT 3.06GB-2.png 丧尸全城/15区 Range.15.2016.1080p.WEB-DL.DD5.1.H264-FGT 3.06GB-7.png






回复

使用道具 举报

懒得打字嘛,点击右侧快捷回复 【右侧内容,后台自定义】
您需要登录后才可以回帖 登录 | 立即加入

本版积分规则

Archiver|小黑屋| 蓝光电影网 |网站地图

Copyright © 2021 Comsenz Inc. Powered by 蓝光电影网

蓝光电影网

本站内容由用户自主分享和转载自互联网,转载目的在于传递更多信息,并不代表本网赞同其观点和对其真实性负责。

如有侵权、违反国家法律政策行为,请联系我们,我们会第一时间及时清除和处理!

举报反馈邮箱:[email protected]

快速回复 返回顶部 返回列表