找回密码

蓝光电影网

查看: 142|回复: 0

[剧情] 拼图/真爱拼拼图 Puzzle.2018.1080p.WEB-DL.DD5.1.H264-FGT 3.53GB

[复制链接]
蓝光币
382
发表于 2020-1-23 14:14:29 | 显示全部楼层 |阅读模式
拼图/真爱拼拼图 Puzzle.2018.1080p.WEB-DL.DD5.1.H264-FGT 3.53GB-1.png

译  名 拼图 / 真爱拼拼图(台)
片  名 Puzzle
年  代 2018
产  地 美国
类  别 剧情
语  言 英语
上映日期 2018-01-23(圣丹斯电影节) / 2018-07-27(美国)
IMDb评分  6.7/10 from 4727 users
IMDb链接  https://www.imdb.com/title/tt6933454
豆瓣评分 6.8/10 from 370 users
豆瓣链接 https://movie.douban.com/subject/27621712/
片  长 103分钟
导  演 马克·图特尔陶布 Marc Turtletaub
编  剧 波利·曼恩 Polly Mann / 欧伦·穆弗曼 Oren Moverman / 娜塔莉娅·斯米诺夫 Natalia Smirnoff
主  演 凯莉·麦克唐纳 Kelly Macdonald
       大卫·丹曼 David Denman
       丹尼尔·斯图尔特·谢尔曼 Daniel Stewart Sherman
       奥斯汀·艾布拉姆斯 Austin Abrams
       巴巴·魏勒 Bubba Weiler
       海伦·考克斯 Helen Coxe
       曼德拉·贝拉米 Mandela Bellamy
       丽芙·休森 Liv Hewson
       洛丽·哈默尔 Lori Hammel


标  签 美国 | 剧情 | 2018 | 自力 | 家庭妇女 | 女性 | 圣丹斯 | 出轨

简  介  

  剧情报告一位家庭妇女在进入了拼图游戏的天下后,生活发生庞大改变。
  1. Video
  2. ID                                       : 1
  3. Format                                   : AVC
  4. Format/Info                              : Advanced Video Codec
  5. Format profile                           : [email protected]
  6. Format settings                          : CABAC / 5 Ref Frames
  7. Format settings, CABAC                   : Yes
  8. Format settings, Reference frames        : 5 frames
  9. Codec ID                                 : V_MPEG4/ISO/AVC
  10. Duration                                 : 1 h 43 min
  11. Bit rate                                 : 4 518 kb/s
  12. Width                                    : 1 912 pixels
  13. Height                                   : 796 pixels
  14. Display aspect ratio                     : 2.40:1
  15. Frame rate mode                          : Constant
  16. Frame rate                               : 23.976 (23976/1000) FPS
  17. Color space                              : YUV
  18. Chroma subsampling                       : 4:2:0
  19. Bit depth                                : 8 bits
  20. Scan type                                : Progressive
  21. Bits/(Pixel*Frame)                       : 0.124
  22. Stream size                              : 3.26 GiB (92%)
  23. Title                                    : Puzzle.2018.1080p.WEB-DL.DD5.1.H264-FGT
  24. Language                                 : English
  25. Default                                  : Yes
  26. Forced                                   : No
  27. Color range                              : Limited
  28. Color primaries                          : BT.709
  29. Transfer characteristics                 : BT.709
  30. Matrix coefficients                      : BT.709

  31. Audio
  32. ID                                       : 2
  33. Format                                   : AC-3
  34. Format/Info                              : Audio Coding 3
  35. Commercial name                          : Dolby Digital
  36. Codec ID                                 : A_AC3
  37. Duration                                 : 1 h 43 min
  38. Bit rate mode                            : Constant
  39. Bit rate                                 : 384 kb/s
  40. Channel(s)                               : 6 channels
  41. Channel layout                           : L R C LFE Ls Rs
  42. Sampling rate                            : 48.0 kHz
  43. Frame rate                               : 31.250 FPS (1536 SPF)
  44. Bit depth                                : 16 bits
  45. Compression mode                         : Lossy
  46. Stream size                              : 283 MiB (8%)
  47. Title                                    : Puzzle.2018.1080p.WEB-DL.DD5.1.H264-FGT
  48. Language                                 : English
  49. Service kind                             : Complete Main
  50. Default                                  : Yes
  51. Forced                                   : No

  52. Menu
  53. 00:00:00.000                             : en:1
  54. 00:04:53.918                             : en:2
  55. 00:12:44.138                             : en:3
  56. 00:18:06.418                             : en:4
  57. 00:23:38.291                             : en:5
  58. 00:30:21.235                             : en:6
  59. 00:39:48.927                             : en:7
  60. 00:43:10.169                             : en:8
  61. 00:50:11.131                             : en:9
  62. 00:55:17.729                             : en:10
  63. 01:01:55.418                             : en:11
  64. 01:07:41.388                             : en:12
  65. 01:15:01.619                             : en:13
  66. 01:19:57.623                             : en:14
  67. 01:26:52.204                             : en:15
  68. 01:35:18.084                             : en:16
复制代码

拼图/真爱拼拼图 Puzzle.2018.1080p.WEB-DL.DD5.1.H264-FGT 3.53GB-2.png 拼图/真爱拼拼图 Puzzle.2018.1080p.WEB-DL.DD5.1.H264-FGT 3.53GB-3.png 拼图/真爱拼拼图 Puzzle.2018.1080p.WEB-DL.DD5.1.H264-FGT 3.53GB-4.png






回复

使用道具 举报

懒得打字嘛,点击右侧快捷回复 【右侧内容,后台自定义】
您需要登录后才可以回帖 登录 | 立即加入

本版积分规则

Archiver|小黑屋| 蓝光电影网 |网站地图

Copyright © 2021 Comsenz Inc. Powered by 蓝光电影网

蓝光电影网

本站内容由用户自主分享和转载自互联网,转载目的在于传递更多信息,并不代表本网赞同其观点和对其真实性负责。

如有侵权、违反国家法律政策行为,请联系我们,我们会第一时间及时清除和处理!

举报反馈邮箱:[email protected]

快速回复 返回顶部 返回列表