找回密码

蓝光电影网

查看: 141|回复: 0

[惊悚] 邪恶的保姆 Evil.Nanny.2016.1080p.WEB-DL.DD5.1.H264-FGT 3.56GB

[复制链接]
蓝光币
426
发表于 2020-1-23 14:15:46 | 显示全部楼层 |阅读模式
邪恶的保姆 Evil.Nanny.2016.1080p.WEB-DL.DD5.1.H264-FGT 3.56GB-1.png

译  名 邪恶的保姆
片  名 Evil Nanny
年  代 2016
产  地 美国
类  别 惊悚
语  言 英语
上映日期 2016-12-27(美国)
IMDb评分  4.8/10 from 483 users
IMDb链接  https://www.imdb.com/title/tt6354166
豆瓣评分 4.4/10 from 40 users
豆瓣链接 https://movie.douban.com/subject/27046593/
片  长 90分钟
导  演 Jared Cohn
编  剧 Naomi L. Selfman
主  演 Lindsay Elston
       Nicole Sterling
       Matthew Pohlkamp
       Cooper Fontaine
       Stephen Barrington
       April McCullough
       Bill Devlin
       Parker Six Rimawi
       Carl Chao
       Demetrius Stear


标  签 惊悚 | 剧情 | 美国 | 看完想打人 | 可骇惊悚悬疑重口血腥 | 差 | 美国电影 | wst

简  介  

  A couple hires a live-in nanny to watch the offspring while they work. At first, everything goes perfectly, but when an unsafe incident means the parents no longer want the nanny around, they find out this nanny is savvy at not being evicted from her live-in situation. So savvy, in fact, that she can make these parents' lives a true nightmare.
  1. Video
  2. ID                                       : 1
  3. Format                                   : AVC
  4. Format/Info                              : Advanced Video Codec
  5. Format profile                           : [email protected]
  6. Format settings                          : CABAC / 4 Ref Frames
  7. Format settings, CABAC                   : Yes
  8. Format settings, Reference frames        : 4 frames
  9. Codec ID                                 : V_MPEG4/ISO/AVC
  10. Duration                                 : 1 h 30 min
  11. Bit rate                                 : 5 148 kb/s
  12. Width                                    : 1 912 pixels
  13. Height                                   : 1 072 pixels
  14. Display aspect ratio                     : 16:9
  15. Frame rate mode                          : Constant
  16. Frame rate                               : 23.976 (24000/1001) FPS
  17. Color space                              : YUV
  18. Chroma subsampling                       : 4:2:0
  19. Bit depth                                : 8 bits
  20. Scan type                                : Progressive
  21. Bits/(Pixel*Frame)                       : 0.105
  22. Stream size                              : 3.25 GiB (91%)
  23. Title                                    : Evil.Nanny.2016.1080p.WEB-DL.DD5.1.H264-FGT
  24. Language                                 : English
  25. Default                                  : Yes
  26. Forced                                   : No
  27. Color range                              : Limited
  28. Color primaries                          : BT.709
  29. Transfer characteristics                 : BT.709
  30. Matrix coefficients                      : BT.709

  31. Audio
  32. ID                                       : 2
  33. Format                                   : AC-3
  34. Format/Info                              : Audio Coding 3
  35. Commercial name                          : Dolby Digital
  36. Codec ID                                 : A_AC3
  37. Duration                                 : 1 h 30 min
  38. Bit rate mode                            : Constant
  39. Bit rate                                 : 384 kb/s
  40. Channel(s)                               : 6 channels
  41. Channel layout                           : L R C LFE Ls Rs
  42. Sampling rate                            : 48.0 kHz
  43. Frame rate                               : 31.250 FPS (1536 SPF)
  44. Bit depth                                : 16 bits
  45. Compression mode                         : Lossy
  46. Stream size                              : 248 MiB (7%)
  47. Title                                    : Evil.Nanny.2016.1080p.WEB-DL.DD5.1.H264-FGT
  48. Language                                 : English
  49. Service kind                             : Complete Main
  50. Default                                  : Yes
  51. Forced                                   : No

  52. Text
  53. ID                                       : 3
  54. Format                                   : UTF-8
  55. Codec ID                                 : S_TEXT/UTF8
  56. Codec ID/Info                            : UTF-8 Plain Text
  57. Language                                 : English
  58. Default                                  : Yes
  59. Forced                                   : No

  60. Menu
  61. 00:00:00.000                             : en:Chapter 1
  62. 00:11:16.000                             : en:Chapter 2
  63. 00:20:18.000                             : en:Chapter 3
  64. 00:33:00.000                             : en:Chapter 4
  65. 00:42:01.000                             : en:Chapter 5
  66. 00:52:08.000                             : en:Chapter 6
  67. 01:02:41.000                             : en:Chapter 7
  68. 01:10:00.000                             : en:Chapter 8
  69. 01:26:37.000                             : en:Chapter 9
复制代码

邪恶的保姆 Evil.Nanny.2016.1080p.WEB-DL.DD5.1.H264-FGT 3.56GB-2.png 邪恶的保姆 Evil.Nanny.2016.1080p.WEB-DL.DD5.1.H264-FGT 3.56GB-3.png 邪恶的保姆 Evil.Nanny.2016.1080p.WEB-DL.DD5.1.H264-FGT 3.56GB-4.png 邪恶的保姆 Evil.Nanny.2016.1080p.WEB-DL.DD5.1.H264-FGT 3.56GB-5.png 邪恶的保姆 Evil.Nanny.2016.1080p.WEB-DL.DD5.1.H264-FGT 3.56GB-1.png 邪恶的保姆 Evil.Nanny.2016.1080p.WEB-DL.DD5.1.H264-FGT 3.56GB-7.png






回复

使用道具 举报

懒得打字嘛,点击右侧快捷回复 【右侧内容,后台自定义】
您需要登录后才可以回帖 登录 | 立即加入

本版积分规则

Archiver|小黑屋| 蓝光电影网 |网站地图

Copyright © 2021 Comsenz Inc. Powered by 蓝光电影网

蓝光电影网

本站内容由用户自主分享和转载自互联网,转载目的在于传递更多信息,并不代表本网赞同其观点和对其真实性负责。

如有侵权、违反国家法律政策行为,请联系我们,我们会第一时间及时清除和处理!

举报反馈邮箱:[email protected]

快速回复 返回顶部 返回列表