找回密码

蓝光电影网

查看: 104|回复: 0

[剧情] 达摩与艾弗:电影 Damo.and.Ivor.The.Movie.2018.1080p.WEB-DL.DD5.1.H264-FGT 3.11GB

[复制链接]
蓝光币
426
发表于 2020-1-23 14:17:15 | 显示全部楼层 |阅读模式
达摩与艾弗:电影 Damo.and.Ivor.The.Movie.2018.1080p.WEB-DL.DD5.1.H264-FGT 3.11GB-1.png

译  名 达摩与艾弗:电影
片  名 Damo & Ivor: The Movie
年  代 2018
产  地 爱尔兰 Ireland
语  言 英语
上映日期 2018-03-16(爱尔兰/英国伦敦)
IMDb评分  5.3/10 from 235 users
IMDb链接  https://www.imdb.com/title/tt7406186
豆瓣评分 0/10 from 0 users
豆瓣链接 https://movie.douban.com/subject/30159394/
片  长 97分钟
导  演 Rob Burke / Ronan Burke
编  剧 Jules Coll / Andy Quirke
主  演 Andy Quirke
       Ruth McCabe
       Tina Kellegher


简  介  

  Damo & Ivor is the satirical comedy, which first appeared on YouTube and RTE’s Republic of Telly back in 2011, about the lives of two identical twin brothers separated not long after birth.
  One of the boys, Damo, is left to grow up on the mean streets of Dublin to be raised by his maternal Grandmother, Grano, while the other, Ivor, is given a life of wealth and luxury in Dublin’s affluent Foxrock by parents who shower their son with money and little else. Both characters are played by the same actor: Andrew Quirke.
  1. Video
  2. ID                                       : 1
  3. Format                                   : AVC
  4. Format/Info                              : Advanced Video Codec
  5. Format profile                           : [email protected]
  6. Format settings                          : CABAC / 5 Ref Frames
  7. Format settings, CABAC                   : Yes
  8. Format settings, Reference frames        : 5 frames
  9. Codec ID                                 : V_MPEG4/ISO/AVC
  10. Duration                                 : 1 h 30 min
  11. Bit rate                                 : 4 527 kb/s
  12. Width                                    : 1 918 pixels
  13. Height                                   : 802 pixels
  14. Display aspect ratio                     : 2.40:1
  15. Frame rate mode                          : Constant
  16. Frame rate                               : 24.000 FPS
  17. Color space                              : YUV
  18. Chroma subsampling                       : 4:2:0
  19. Bit depth                                : 8 bits
  20. Scan type                                : Progressive
  21. Bits/(Pixel*Frame)                       : 0.123
  22. Stream size                              : 2.86 GiB (92%)
  23. Title                                    : Damo.and.Ivor.The.Movie.2018.1080p.WEB-DL.DD5.1.H264-FGT
  24. Language                                 : English
  25. Default                                  : Yes
  26. Forced                                   : No
  27. Color range                              : Limited
  28. Color primaries                          : BT.709
  29. Transfer characteristics                 : BT.709
  30. Matrix coefficients                      : BT.709

  31. Audio
  32. ID                                       : 2
  33. Format                                   : AC-3
  34. Format/Info                              : Audio Coding 3
  35. Commercial name                          : Dolby Digital
  36. Codec ID                                 : A_AC3
  37. Duration                                 : 1 h 30 min
  38. Bit rate mode                            : Constant
  39. Bit rate                                 : 384 kb/s
  40. Channel(s)                               : 6 channels
  41. Channel layout                           : L R C LFE Ls Rs
  42. Sampling rate                            : 48.0 kHz
  43. Frame rate                               : 31.250 FPS (1536 SPF)
  44. Bit depth                                : 16 bits
  45. Compression mode                         : Lossy
  46. Stream size                              : 249 MiB (8%)
  47. Title                                    : Damo.and.Ivor.The.Movie.2018.1080p.WEB-DL.DD5.1.H264-FGT
  48. Language                                 : English
  49. Service kind                             : Complete Main
  50. Default                                  : Yes
  51. Forced                                   : No

  52. Menu
  53. 00:00:00.000                             : en:Chapter 1
  54. 00:17:22.208                             : en:Chapter 2
  55. 00:34:05.499                             : en:Chapter 3
  56. 00:51:56.207                             : en:Chapter 4
  57. 01:07:20.707                             : en:Chapter 5
  58. 01:25:16.665                             : en:Chapter 6
复制代码

达摩与艾弗:电影 Damo.and.Ivor.The.Movie.2018.1080p.WEB-DL.DD5.1.H264-FGT 3.11GB-2.png 达摩与艾弗:电影 Damo.and.Ivor.The.Movie.2018.1080p.WEB-DL.DD5.1.H264-FGT 3.11GB-3.png 达摩与艾弗:电影 Damo.and.Ivor.The.Movie.2018.1080p.WEB-DL.DD5.1.H264-FGT 3.11GB-4.png






回复

使用道具 举报

懒得打字嘛,点击右侧快捷回复 【右侧内容,后台自定义】
您需要登录后才可以回帖 登录 | 立即加入

本版积分规则

Archiver|小黑屋| 蓝光电影网 |网站地图

Copyright © 2021 Comsenz Inc. Powered by 蓝光电影网

蓝光电影网

本站内容由用户自主分享和转载自互联网,转载目的在于传递更多信息,并不代表本网赞同其观点和对其真实性负责。

如有侵权、违反国家法律政策行为,请联系我们,我们会第一时间及时清除和处理!

举报反馈邮箱:[email protected]

快速回复 返回顶部 返回列表