找回密码

蓝光电影网

查看: 120|回复: 0

[剧情] 霍利奥克11:55 11.55.2016.1080p.WEB-DL.DD5.1.H264-FGT 2.81GB

[复制链接]
蓝光币
382
发表于 2020-1-23 14:18:57 | 显示全部楼层 |阅读模式
霍利奥克11:55 11.55.2016.1080p.WEB-DL.DD5.1.H264-FGT 2.81GB-1.png

译  名 霍利奥克11:55 / 11:55 Holyoke
片  名 11:55 Holyoke
年  代 2015
产  地 美国
类  别 剧情
语  言 英语
IMDb评分  4.8/10 from 438 users
IMDb链接  https://www.imdb.com/title/tt4250438
豆瓣评分 0/10 from 0 users
豆瓣链接 https://movie.douban.com/subject/26289107/
片  长 80分钟
导  演 Ari Issler / Ben Snyder
编  剧 Victor Almanzar / Ari Issler / Ben Snyder
主  演 雪莉·拉米瑞克 Shirley Rumierk
       伊丽莎白·罗德里格斯 Elizabeth Rodriguez
       约翰·雷吉扎莫 John Leguizamo
       Victor Almanzar
       Robin de Jesus
       Mike Carlsen
       Goya Robles
       Dominic Colon
       Smarlin Hernandez
       Kareem Savinon
       Johnny Rivera
       John Rafael Peralta
       Jaime Lincoln Smith
       Erick Betancourt
       LaVonda Elam


标  签 美国电影 | 战争 | 家庭 | 2015

简  介  

  U.S. Marine Nelson Sanchez has run out of time. After being honorably discharged and returning to his economically depressed hometown, Nelson must face the consequences of the violent past he thought he had escaped. Trying desperately to survive the day, Nelson charts an unlikely path to redemption. In a place where the only options appear to be the street or the military, 11:55 captures a young man's escape from the cycles of violence that have defined [email protected]
  1. Video
  2. ID                                       : 1
  3. Format                                   : AVC
  4. Format/Info                              : Advanced Video Codec
  5. Format profile                           : [email protected]
  6. Format settings                          : CABAC / 5 Ref Frames
  7. Format settings, CABAC                   : Yes
  8. Format settings, Reference frames        : 5 frames
  9. Codec ID                                 : V_MPEG4/ISO/AVC
  10. Duration                                 : 1 h 20 min
  11. Bit rate                                 : 4 516 kb/s
  12. Width                                    : 1 912 pixels
  13. Height                                   : 800 pixels
  14. Display aspect ratio                     : 2.40:1
  15. Frame rate mode                          : Constant
  16. Frame rate                               : 23.976 (24000/1001) FPS
  17. Color space                              : YUV
  18. Chroma subsampling                       : 4:2:0
  19. Bit depth                                : 8 bits
  20. Scan type                                : Progressive
  21. Bits/(Pixel*Frame)                       : 0.123
  22. Stream size                              : 2.54 GiB (90%)
  23. Title                                    : 11.55.2016.1080p.WEB-DL.DD5.1.H264-FGT
  24. Language                                 : English
  25. Default                                  : Yes
  26. Forced                                   : No
  27. Color range                              : Limited
  28. Color primaries                          : BT.709
  29. Transfer characteristics                 : BT.709
  30. Matrix coefficients                      : BT.709

  31. Audio
  32. ID                                       : 2
  33. Format                                   : AC-3
  34. Format/Info                              : Audio Coding 3
  35. Commercial name                          : Dolby Digital
  36. Codec ID                                 : A_AC3
  37. Duration                                 : 1 h 20 min
  38. Bit rate mode                            : Constant
  39. Bit rate                                 : 384 kb/s
  40. Channel(s)                               : 6 channels
  41. Channel layout                           : L R C LFE Ls Rs
  42. Sampling rate                            : 48.0 kHz
  43. Frame rate                               : 31.250 FPS (1536 SPF)
  44. Bit depth                                : 16 bits
  45. Compression mode                         : Lossy
  46. Stream size                              : 221 MiB (8%)
  47. Title                                    : 11.55.2016.1080p.WEB-DL.DD5.1.H264-FGT
  48. Language                                 : English
  49. Service kind                             : Complete Main
  50. Default                                  : Yes
  51. Forced                                   : No

  52. Text
  53. ID                                       : 3
  54. Format                                   : UTF-8
  55. Codec ID                                 : S_TEXT/UTF8
  56. Codec ID/Info                            : UTF-8 Plain Text
  57. Language                                 : English
  58. Default                                  : Yes
  59. Forced                                   : No

  60. Menu
  61. 00:00:00.000                             : en:Chapter 1
  62. 00:07:01.000                             : en:Chapter 2
  63. 00:15:02.000                             : en:Chapter 3
  64. 00:22:45.000                             : en:Chapter 4
  65. 00:31:38.000                             : en:Chapter 5
  66. 00:38:50.000                             : en:Chapter 6
  67. 00:47:25.000                             : en:Chapter 7
  68. 00:57:07.000                             : en:Chapter 8
  69. 01:05:05.000                             : en:Chapter 9
  70. 01:12:50.000                             : en:Chapter 10
复制代码

霍利奥克11:55 11.55.2016.1080p.WEB-DL.DD5.1.H264-FGT 2.81GB-2.png 霍利奥克11:55 11.55.2016.1080p.WEB-DL.DD5.1.H264-FGT 2.81GB-3.png 霍利奥克11:55 11.55.2016.1080p.WEB-DL.DD5.1.H264-FGT 2.81GB-4.png 霍利奥克11:55 11.55.2016.1080p.WEB-DL.DD5.1.H264-FGT 2.81GB-5.png 霍利奥克11:55 11.55.2016.1080p.WEB-DL.DD5.1.H264-FGT 2.81GB-6.png 霍利奥克11:55 11.55.2016.1080p.WEB-DL.DD5.1.H264-FGT 2.81GB-7.png






回复

使用道具 举报

懒得打字嘛,点击右侧快捷回复 【右侧内容,后台自定义】
您需要登录后才可以回帖 登录 | 立即加入

本版积分规则

Archiver|小黑屋| 蓝光电影网 |网站地图

Copyright © 2021 Comsenz Inc. Powered by 蓝光电影网

蓝光电影网

本站内容由用户自主分享和转载自互联网,转载目的在于传递更多信息,并不代表本网赞同其观点和对其真实性负责。

如有侵权、违反国家法律政策行为,请联系我们,我们会第一时间及时清除和处理!

举报反馈邮箱:[email protected]

快速回复 返回顶部 返回列表