找回密码

蓝光电影网

查看: 448|回复: 1

[纪录] 保罗·麦卡特尼与翅膀演唱会 Rockshow.1980.1080p.BluRay.x264-HANDJOB 11.46GB

[复制链接]
蓝光币
426
发表于 2020-1-23 14:23:07 | 显示全部楼层 |阅读模式
保罗·麦卡特尼与同党演唱会 Rockshow.1980.1080p.BluRay.x264-HANDJOB 11.46GB-1.png

译  名 保罗·麦卡特尼与同党演唱会
片  名 Rockshow
年  代 1980
产  地 英国
类  别 记载片 / 音乐
语  言 英语
上映日期 1980-11-26
IMDb评分  8.1/10 from 388 users
IMDb链接  https://www.imdb.com/title/tt0079814
豆瓣评分 0/10 from 0 users
豆瓣链接 https://movie.douban.com/subject/1891376/
片  长 105分钟

标  签 记载片 | 麦卡 | 音乐 | 英国制造 | 英国 | 现场 | 演唱会 | 披头士

简  介  

  暂无相关剧情先容
  1. Video
  2. ID                                       : 1
  3. Format                                   : AVC
  4. Format/Info                              : Advanced Video Codec
  5. Format profile                           : [email protected]
  6. Format settings                          : CABAC / 4 Ref Frames
  7. Format settings, CABAC                   : Yes
  8. Format settings, Reference frames        : 4 frames
  9. Codec ID                                 : V_MPEG4/ISO/AVC
  10. Duration                                 : 2 h 9 min
  11. Bit rate                                 : 11.8 Mb/s
  12. Width                                    : 1 920 pixels
  13. Height                                   : 1 036 pixels
  14. Display aspect ratio                     : 1.85:1
  15. Frame rate mode                          : Constant
  16. Frame rate                               : 23.976 (24000/1001) FPS
  17. Color space                              : YUV
  18. Chroma subsampling                       : 4:2:0
  19. Bit depth                                : 8 bits
  20. Scan type                                : Progressive
  21. Bits/(Pixel*Frame)                       : 0.246
  22. Stream size                              : 10.7 GiB (93%)
  23. Writing library                          : x264 core 157 r2935 545de2f
  24. Encoding settings                        : cabac=1 / ref=4 / deblock=1:-3:-3 / analyse=0x3:0x133 / me=umh / subme=10 / psy=1 / psy_rd=1.00:0.00 / mixed_ref=1 / me_range=32 / chroma_me=1 / trellis=2 / 8x8dct=1 / cqm=0 / deadzone=21,11 / fast_pskip=0 / chroma_qp_offset=-2 / threads=24 / lookahead_threads=6 / sliced_threads=0 / nr=0 / decimate=0 / interlaced=0 / bluray_compat=0 / constrained_intra=0 / bframes=16 / b_pyramid=2 / b_adapt=2 / b_bias=0 / direct=3 / weightb=1 / open_gop=0 / weightp=2 / keyint=240 / keyint_min=24 / scenecut=40 / intra_refresh=0 / rc_lookahead=60 / rc=crf / mbtree=0 / crf=23.0 / qcomp=0.60 / qpmin=0 / qpmax=69 / qpstep=4 / vbv_maxrate=62500 / vbv_bufsize=78125 / crf_max=0.0 / nal_hrd=none / filler=0 / ip_ratio=1.40 / pb_ratio=1.30 / aq=2:1.00
  25. Language                                 : English
  26. Default                                  : Yes
  27. Forced                                   : No
  28. Color range                              : Limited
  29. Color primaries                          : BT.709
  30. Transfer characteristics                 : BT.709
  31. Matrix coefficients                      : BT.709

  32. Audio
  33. ID                                       : 2
  34. Format                                   : FLAC
  35. Format/Info                              : Free Lossless Audio Codec
  36. Codec ID                                 : A_FLAC
  37. Duration                                 : 2 h 9 min
  38. Bit rate mode                            : Variable
  39. Bit rate                                 : 892 kb/s
  40. Channel(s)                               : 2 channels
  41. Sampling rate                            : 48.0 kHz
  42. Frame rate                               : 11.719 FPS (4096 SPF)
  43. Bit depth                                : 16 bits
  44. Compression mode                         : Lossless
  45. Stream size                              : 826 MiB (7%)
  46. Writing library                          : libFLAC 1.2.1 (UTC 2007-09-17)
  47. Language                                 : English
  48. Default                                  : Yes
  49. Forced                                   : No

  50. Menu
  51. 00:00:00.000                             : :Venus and Mars / Rockshow / Jet
  52. 00:10:39.389                             : :Let Me Roll It
  53. 00:14:34.165                             : :Spirits of Ancient Egypt
  54. 00:19:05.645                             : :Medicine Jar
  55. 00:23:21.817                             : :Maybe I\'m Amazed
  56. 00:29:05.035                             : :Call Me Back Again
  57. 00:34:21.560                             : :Lady Madonna
  58. 00:38:36.022                             : :The Long and Winding Road
  59. 00:43:12.715                             : :Live and Let Die
  60. 00:47:15.541                             : :Picasso\'s Last Words
  61. 00:49:34.763                             : :Richard Cory
  62. 00:52:34.652                             : :Bluebird
  63. 00:56:43.400                             : :I\'ve Just Seen a Face
  64. 00:59:12.883                             : :Blackbird
  65. 01:02:12.646                             : :Yesterday
  66. 01:04:39.376                             : :You Gave Me the Answer
  67. 01:07:10.902                             : :Magneto and Titanium Man
  68. 01:10:41.654                             : :Go Now
  69. 01:14:41.602                             : :My Love
  70. 01:19:09.703                             : :Listen to What the Man Said
  71. 01:23:01.059                             : :Let \'Em In
  72. 01:28:00.150                             : :Time to Hide
  73. 01:33:00.033                             : :Silly Love Songs
  74. 01:39:18.870                             : :Beware My Love
  75. 01:46:30.634                             : :Letting Go
  76. 01:51:00.863                             : :Band On the Run
  77. 01:57:43.473                             : :Hi Hi Hi
  78. 02:01:34.454                             : :Soily
复制代码

保罗·麦卡特尼与同党演唱会 Rockshow.1980.1080p.BluRay.x264-HANDJOB 11.46GB-2.png 保罗·麦卡特尼与同党演唱会 Rockshow.1980.1080p.BluRay.x264-HANDJOB 11.46GB-1.png 保罗·麦卡特尼与同党演唱会 Rockshow.1980.1080p.BluRay.x264-HANDJOB 11.46GB-4.png





回复

使用道具 举报

懒得打字嘛,点击右侧快捷回复 【右侧内容,后台自定义】
您需要登录后才可以回帖 登录 | 立即加入

本版积分规则

Archiver|小黑屋| 蓝光电影网 |网站地图

Copyright © 2021 Comsenz Inc. Powered by 蓝光电影网

蓝光电影网

本站内容由用户自主分享和转载自互联网,转载目的在于传递更多信息,并不代表本网赞同其观点和对其真实性负责。

如有侵权、违反国家法律政策行为,请联系我们,我们会第一时间及时清除和处理!

举报反馈邮箱:[email protected]

快速回复 返回顶部 返回列表