找回密码

蓝光电影网

查看: 851|回复: 2

[恐怖] 谵妄 Delirium.1987.DUBBED.1080p.BluRay.x264.DTS-FGT 8.52GB

[复制链接]
蓝光币
426
发表于 2020-1-23 14:25:43 | 显示全部楼层 |阅读模式
谵妄 Delirium.1987.DUBBED.1080p.BluRay.x264.DTS-FGT 8.52GB-1.png

译  名 谵妄 / Delirium
片  名 Le foto di Gioia
年  代 1987
产  地 意大利
类  别 可骇
语  言 意大利语
上映日期 1987-04-03
IMDb评分  5.6/10 from 1421 users
IMDb链接  https://www.imdb.com/title/tt0093043
豆瓣评分 6.4/10 from 108 users
豆瓣链接 https://movie.douban.com/subject/3250856/
片  长 94 分钟
导  演 兰帕德·帕瓦 Lamberto Bava
编  剧 Gianfranco Clerici / 卢西亚诺·马蒂诺 Luciano Martino / Daniele Stroppa
主  演 塞伦娜·格兰蒂 Serena Grandi
       达里亚·尼科洛迪 Daria Nicolodi


标  签 意大利 | 可骇 | 惊悚 | 情色 | 犯罪 | 1987 | 裸体 | 很想看

简  介  

  前模特兼杂志社老板格洛丽亚自嫁给巨贾后便隐退江湖,但是丈夫的意外归天使她萎靡不振,直至一年后才重返杂志界,可陪伴着她回归的是连续桩血腥命案,杂志的封面模特接连灭亡,在凶手眼中她们似容貌可憎的怪物,在残暴杀戮后,他总会将尸身摆放在格洛丽亚的海报前拍摄照片并将其寄给格洛丽亚,这让她全日惊慌不安,担忧自己成为下一个被害者。这究竟是买卖对手的灭亡威胁,还是潜伏在身旁的杀人魔所为?格洛丽亚将凭仗她的巨乳...不,是聪明寻觅答案。
  1. Video
  2. ID                                       : 1
  3. Format                                   : AVC
  4. Format/Info                              : Advanced Video Codec
  5. Format profile                           : [email protected]
  6. Format settings                          : CABAC / 4 Ref Frames
  7. Format settings, CABAC                   : Yes
  8. Format settings, Reference frames        : 4 frames
  9. Codec ID                                 : V_MPEG4/ISO/AVC
  10. Duration                                 : 1 h 33 min
  11. Bit rate                                 : 11.5 Mb/s
  12. Width                                    : 1 920 pixels
  13. Height                                   : 1 036 pixels
  14. Display aspect ratio                     : 1.85:1
  15. Frame rate mode                          : Constant
  16. Frame rate                               : 23.976 (24000/1001) FPS
  17. Color space                              : YUV
  18. Chroma subsampling                       : 4:2:0
  19. Bit depth                                : 8 bits
  20. Scan type                                : Progressive
  21. Bits/(Pixel*Frame)                       : 0.241
  22. Stream size                              : 7.53 GiB (88%)
  23. Title                                    : Delirium.1987.DUBBED.1080p.BluRay.x264.DTS-FGT
  24. Writing library                          : x264 core 148 r2748 97eaef2
  25. Encoding settings                        : cabac=1 / ref=4 / deblock=1:-2:-2 / analyse=0x3:0x113 / me=umh / subme=9 / psy=1 / psy_rd=1.00:0.15 / mixed_ref=1 / me_range=16 / chroma_me=1 / trellis=2 / 8x8dct=1 / cqm=0 / deadzone=21,11 / fast_pskip=1 / chroma_qp_offset=-3 / threads=72 / lookahead_threads=3 / sliced_threads=0 / nr=0 / decimate=1 / interlaced=0 / bluray_compat=0 / constrained_intra=0 / bframes=3 / b_pyramid=2 / b_adapt=1 / b_bias=0 / direct=3 / weightb=1 / open_gop=0 / weightp=2 / keyint=250 / keyint_min=25 / scenecut=40 / intra_refresh=0 / rc_lookahead=50 / rc=2pass / mbtree=1 / bitrate=11500 / ratetol=1.0 / qcomp=0.60 / qpmin=0 / qpmax=69 / qpstep=4 / cplxblur=20.0 / qblur=0.5 / vbv_maxrate=31250 / vbv_bufsize=31250 / nal_hrd=none / filler=0 / ip_ratio=1.40 / aq=1:1.00
  26. Language                                 : English
  27. Default                                  : Yes
  28. Forced                                   : No

  29. Audio
  30. ID                                       : 2
  31. Format                                   : DTS
  32. Format/Info                              : Digital Theater Systems
  33. Codec ID                                 : A_DTS
  34. Duration                                 : 1 h 33 min
  35. Bit rate mode                            : Constant
  36. Bit rate                                 : 1 509 kb/s
  37. Channel(s)                               : 2 channels
  38. Channel layout                           : L R
  39. Sampling rate                            : 48.0 kHz
  40. Frame rate                               : 93.750 FPS (512 SPF)
  41. Bit depth                                : 16 bits
  42. Compression mode                         : Lossy
  43. Stream size                              : 1 012 MiB (12%)
  44. Title                                    : Delirium.1987.DUBBED.1080p.BluRay.x264.DTS-FGT
  45. Language                                 : English
  46. Default                                  : Yes
  47. Forced                                   : No

  48. Menu
  49. 00:00:00.000                             : en:Chapter 1
  50. 00:06:18.378                             : en:Chapter 2
  51. 00:12:40.843                             : en:Chapter 3
  52. 00:17:05.399                             : en:Chapter 4
  53. 00:22:42.778                             : en:Chapter 5
  54. 00:27:56.592                             : en:Chapter 6
  55. 00:30:59.941                             : en:Chapter 7
  56. 00:36:21.554                             : en:Chapter 8
  57. 00:44:03.015                             : en:Chapter 9
  58. 00:52:36.320                             : en:Chapter 10
  59. 00:58:51.278                             : en:Chapter 11
  60. 01:08:33.359                             : en:Chapter 12
  61. 01:16:23.454                             : en:Chapter 13
  62. 01:21:42.731                             : en:Chapter 14
  63. 01:32:08.189                             : en:Chapter 15
复制代码

谵妄 Delirium.1987.DUBBED.1080p.BluRay.x264.DTS-FGT 8.52GB-2.png 谵妄 Delirium.1987.DUBBED.1080p.BluRay.x264.DTS-FGT 8.52GB-3.png 谵妄 Delirium.1987.DUBBED.1080p.BluRay.x264.DTS-FGT 8.52GB-4.png






回复

使用道具 举报

懒得打字嘛,点击右侧快捷回复 【右侧内容,后台自定义】
您需要登录后才可以回帖 登录 | 立即加入

本版积分规则

Archiver|小黑屋| 蓝光电影网 |网站地图

Copyright © 2021 Comsenz Inc. Powered by 蓝光电影网

蓝光电影网

本站内容由用户自主分享和转载自互联网,转载目的在于传递更多信息,并不代表本网赞同其观点和对其真实性负责。

如有侵权、违反国家法律政策行为,请联系我们,我们会第一时间及时清除和处理!

举报反馈邮箱:[email protected]

快速回复 返回顶部 返回列表