找回密码

蓝光电影网

查看: 158|回复: 0

[惊悚] 索姆 Somnium.2018.1080p.AMZN.WEBRip.DD2.0.x264-CM 5.43GB

[复制链接]
蓝光币
426
发表于 2020-1-23 14:31:16 | 显示全部楼层 |阅读模式
索姆 Somnium.2018.1080p.AMZN.WEBRip.DD2.0.x264-CM 5.43GB-1.png

译  名 索姆
片  名 Somnium
年  代 2018
产  地 美国
类  别 惊悚
语  言 英语
IMDb评分  3.6/10 from 117 users
IMDb链接  https://www.imdb.com/title/tt8484038
豆瓣评分 0/10 from 0 users
豆瓣链接 https://movie.douban.com/subject/30390030/
导  演 Joseph Ciminera
编  剧 Joseph Ciminera
主  演 Gianna Ciminera
       Alexa Ciminera
       Tiffany Browne-Tavarez


简  介  

  A tale of two sisters with rare unique supernatural abilities. Three burglars break into a house to find jewels and money but leave their sanity behind.
  1. Video
  2. ID                                       : 1
  3. Format                                   : AVC
  4. Format/Info                              : Advanced Video Codec
  5. Format profile                           : [email protected]
  6. Format settings                          : CABAC / 4 Ref Frames
  7. Format settings, CABAC                   : Yes
  8. Format settings, Reference frames        : 4 frames
  9. Codec ID                                 : V_MPEG4/ISO/AVC
  10. Duration                                 : 1 h 17 min
  11. Bit rate mode                            : Constant
  12. Bit rate                                 : 10 000 kb/s
  13. Width                                    : 1 920 pixels
  14. Height                                   : 1 080 pixels
  15. Display aspect ratio                     : 16:9
  16. Frame rate mode                          : Constant
  17. Frame rate                               : 23.976 (24000/1001) FPS
  18. Color space                              : YUV
  19. Chroma subsampling                       : 4:2:0
  20. Bit depth                                : 8 bits
  21. Scan type                                : Progressive
  22. Bits/(Pixel*Frame)                       : 0.201
  23. Stream size                              : 5.36 GiB (99%)
  24. Default                                  : Yes
  25. Forced                                   : No
  26. Color range                              : Limited
  27. Color primaries                          : BT.709
  28. Transfer characteristics                 : BT.709
  29. Matrix coefficients                      : BT.709

  30. Audio
  31. ID                                       : 2
  32. Format                                   : AAC LC
  33. Format/Info                              : Advanced Audio Codec Low Complexity
  34. Codec ID                                 : A_AAC-2
  35. Duration                                 : 1 h 17 min
  36. Bit rate                                 : 125 kb/s
  37. Channel(s)                               : 2 channels
  38. Channel layout                           : L R
  39. Sampling rate                            : 48.0 kHz
  40. Frame rate                               : 46.875 FPS (1024 SPF)
  41. Compression mode                         : Lossy
  42. Stream size                              : 69.7 MiB (1%)
  43. Title                                    : English
  44. Language                                 : English
  45. Default                                  : Yes
  46. Forced                                   : No

  47. Text
  48. ID                                       : 3
  49. Format                                   : UTF-8
  50. Codec ID                                 : S_TEXT/UTF8
  51. Codec ID/Info                            : UTF-8 Plain Text
  52. Duration                                 : 1 h 16 min
  53. Bit rate                                 : 54 b/s
  54. Count of elements                        : 955
  55. Stream size                              : 30.3 KiB (0%)
  56. Title                                    : English [SDH]
  57. Language                                 : English
  58. Default                                  : No
  59. Forced                                   : No
复制代码

索姆 Somnium.2018.1080p.AMZN.WEBRip.DD2.0.x264-CM 5.43GB-2.png 索姆 Somnium.2018.1080p.AMZN.WEBRip.DD2.0.x264-CM 5.43GB-3.png 索姆 Somnium.2018.1080p.AMZN.WEBRip.DD2.0.x264-CM 5.43GB-4.png






回复

使用道具 举报

懒得打字嘛,点击右侧快捷回复 【右侧内容,后台自定义】
您需要登录后才可以回帖 登录 | 立即加入

本版积分规则

Archiver|小黑屋| 蓝光电影网 |网站地图

Copyright © 2021 Comsenz Inc. Powered by 蓝光电影网

蓝光电影网

本站内容由用户自主分享和转载自互联网,转载目的在于传递更多信息,并不代表本网赞同其观点和对其真实性负责。

如有侵权、违反国家法律政策行为,请联系我们,我们会第一时间及时清除和处理!

举报反馈邮箱:[email protected]

快速回复 返回顶部 返回列表