找回密码

蓝光电影网

查看: 376|回复: 0

[奇幻] 美人鱼是真实的 Scales.Mermaids.Are.Real.2017.1080p.AMZN.WEBRip.DDP5.1.x264-QOQ 6.04GB

[复制链接]
蓝光币
426
发表于 2020-1-23 14:32:18 | 显示全部楼层 |阅读模式
美人鱼是实在的 Scales.Mermaids.Are.Real.2017.1080p.AMZN.WEBRip.DDP5.1.x264-QOQ 6.04GB-1.png

译  名 美人鱼是实在的
片  名 Scales Mermaids Are Real
年  代 2017
产  地 美国
类  别 儿童 / 奇异
语  言 英语
上映日期 2017-07-21(美国)
IMDb评分  4.7/10 from 366 users
IMDb链接  https://www.imdb.com/title/tt4526136
豆瓣评分 0/10 from 0 users
豆瓣链接 https://movie.douban.com/subject/27597150/
导  演 Kevan Peterson
编  剧 Kevan Peterson
主  演 Emmy Perry
       摩根·费尔切尔德 Morgan Fairchild
       伊丽莎白·霍尔姆 Elisabeth R?hm
       杰克·迪伦·格雷泽 Jack Dylan Grazer
       Nikki Hahn
       斯蒂芬·斯内登 Stephen Snedden


标  签 美国 | 儿童 | 科幻 | 青春 | 奇异 | 2017 | 电影 | 奇异魔幻

简  介  

  Siren Phillips has lived her life thinking she's an ordinary girl, in an ordinary town. On the eve of her twelfth birthday, however, she learns that she is far from ordinary. Destined to turn into a Mermaid at the age of twelve, Siren must struggle with her new reality, saying good-bye to her mother and friends, while she transitions into the water. To make matters worse, a group of hunters are trying to catch her. She soon becomes friends with Adam Wilts, a new boy at school, who she turns to for help. He agrees to help her, but finds himself caught in the middle, when it's his own father who is after Siren. When Siren's mother is taken, the town must rally behind her, and help her make a peaceful transition into the water, before the hunters can find out where she is.
  1. Video
  2. ID                                       : 1
  3. Format                                   : AVC
  4. Format/Info                              : Advanced Video Codec
  5. Format profile                           : [email protected]
  6. Format settings                          : CABAC / 4 Ref Frames
  7. Format settings, CABAC                   : Yes
  8. Format settings, Reference frames        : 4 frames
  9. Codec ID                                 : V_MPEG4/ISO/AVC
  10. Duration                                 : 1 h 32 min
  11. Bit rate mode                            : Variable
  12. Bit rate                                 : 8 684 kb/s
  13. Maximum bit rate                         : 15.0 Mb/s
  14. Width                                    : 1 920 pixels
  15. Height                                   : 1 080 pixels
  16. Display aspect ratio                     : 16:9
  17. Frame rate mode                          : Constant
  18. Frame rate                               : 23.976 (24000/1001) FPS
  19. Color space                              : YUV
  20. Chroma subsampling                       : 4:2:0
  21. Bit depth                                : 8 bits
  22. Scan type                                : Progressive
  23. Bits/(Pixel*Frame)                       : 0.175
  24. Stream size                              : 5.62 GiB (93%)
  25. Default                                  : Yes
  26. Forced                                   : No
  27. Color range                              : Limited
  28. Color primaries                          : BT.709
  29. Transfer characteristics                 : BT.709
  30. Matrix coefficients                      : BT.709

  31. Audio
  32. ID                                       : 2
  33. Format                                   : E-AC-3
  34. Format/Info                              : Enhanced AC-3
  35. Commercial name                          : Dolby Digital Plus
  36. Codec ID                                 : A_EAC3
  37. Duration                                 : 1 h 32 min
  38. Bit rate mode                            : Constant
  39. Bit rate                                 : 640 kb/s
  40. Channel(s)                               : 6 channels
  41. Channel layout                           : L R C LFE Ls Rs
  42. Sampling rate                            : 48.0 kHz
  43. Frame rate                               : 31.250 FPS (1536 SPF)
  44. Compression mode                         : Lossy
  45. Stream size                              : 424 MiB (7%)
  46. Language                                 : English
  47. Service kind                             : Complete Main
  48. Default                                  : Yes
  49. Forced                                   : No

  50. Text
  51. ID                                       : 3
  52. Format                                   : UTF-8
  53. Codec ID                                 : S_TEXT/UTF8
  54. Codec ID/Info                            : UTF-8 Plain Text
  55. Duration                                 : 1 h 31 min
  56. Bit rate                                 : 62 b/s
  57. Count of elements                        : 1394
  58. Stream size                              : 42.1 KiB (0%)
  59. Language                                 : English
  60. Default                                  : No
  61. Forced                                   : No
复制代码

美人鱼是实在的 Scales.Mermaids.Are.Real.2017.1080p.AMZN.WEBRip.DDP5.1.x264-QOQ 6.04GB-2.png 美人鱼是实在的 Scales.Mermaids.Are.Real.2017.1080p.AMZN.WEBRip.DDP5.1.x264-QOQ 6.04GB-3.png 美人鱼是实在的 Scales.Mermaids.Are.Real.2017.1080p.AMZN.WEBRip.DDP5.1.x264-QOQ 6.04GB-4.png 美人鱼是实在的 Scales.Mermaids.Are.Real.2017.1080p.AMZN.WEBRip.DDP5.1.x264-QOQ 6.04GB-5.png 美人鱼是实在的 Scales.Mermaids.Are.Real.2017.1080p.AMZN.WEBRip.DDP5.1.x264-QOQ 6.04GB-6.png 美人鱼是实在的 Scales.Mermaids.Are.Real.2017.1080p.AMZN.WEBRip.DDP5.1.x264-QOQ 6.04GB-7.png






回复

使用道具 举报

懒得打字嘛,点击右侧快捷回复 【右侧内容,后台自定义】
您需要登录后才可以回帖 登录 | 立即加入

本版积分规则

Archiver|小黑屋| 蓝光电影网 |网站地图

Copyright © 2021 Comsenz Inc. Powered by 蓝光电影网

蓝光电影网

本站内容由用户自主分享和转载自互联网,转载目的在于传递更多信息,并不代表本网赞同其观点和对其真实性负责。

如有侵权、违反国家法律政策行为,请联系我们,我们会第一时间及时清除和处理!

举报反馈邮箱:[email protected]

快速回复 返回顶部 返回列表