找回密码

蓝光电影网

查看: 150|回复: 0

[恐怖] 圣诞节前12天 Once.Upon.a.Time.at.Christmas.2017.1080p.WEB-DL.DD5.1.H264-FGT 3.79GB

[复制链接]
蓝光币
382
发表于 2020-1-23 14:33:46 | 显示全部楼层 |阅读模式
圣诞节前12天 Once.Upon.a.Time.at.Christmas.2017.1080p.WEB-DL.DD5.1.H264-FGT 3.79GB-1.png

译  名 圣诞节前12天
片  名 Once Upon a Time at Christmas
年  代 2017
产  地 英国
类  别 可骇
语  言 英语
上映日期 2017-12-01(英国)
IMDb评分  3.4/10 from 338 users
IMDb链接  https://www.imdb.com/title/tt6172696
豆瓣评分 0/10 from 0 users
豆瓣链接 https://movie.douban.com/subject/27167050/
导  演 Paul Tanter
编  剧 Christopher Jolley
主  演 西蒙·菲利普斯 Simon Phillips
       Sayla de Goede


标  签 血腥 | 美国 | 暴力 | 惊悚 | 可骇 | 犯罪

简  介  

  故事报告了在圣诞节前12天,由一对叫 Santa 和 Clause 的连环杀手佳耦在位于弗吉尼亚州纽约的北部城镇伍德布里奇停止的一场杀人狂欢。@快影盒子
  1. Video
  2. ID                                       : 1
  3. Format                                   : AVC
  4. Format/Info                              : Advanced Video Codec
  5. Format profile                           : [email protected]
  6. Format settings                          : CABAC / 4 Ref Frames
  7. Format settings, CABAC                   : Yes
  8. Format settings, Reference frames        : 4 frames
  9. Codec ID                                 : V_MPEG4/ISO/AVC
  10. Duration                                 : 1 h 36 min
  11. Bit rate                                 : 5 106 kb/s
  12. Width                                    : 1 912 pixels
  13. Height                                   : 1 072 pixels
  14. Display aspect ratio                     : 16:9
  15. Frame rate mode                          : Constant
  16. Frame rate                               : 23.976 (24000/1001) FPS
  17. Color space                              : YUV
  18. Chroma subsampling                       : 4:2:0
  19. Bit depth                                : 8 bits
  20. Scan type                                : Progressive
  21. Bits/(Pixel*Frame)                       : 0.104
  22. Stream size                              : 3.45 GiB (91%)
  23. Title                                    : Once.Upon.a.Time.at.Christmas.2017.1080p.WEB-DL.DD5.1.H264-FGT
  24. Language                                 : English
  25. Default                                  : Yes
  26. Forced                                   : No
  27. Color range                              : Limited
  28. Color primaries                          : BT.709
  29. Transfer characteristics                 : BT.709
  30. Matrix coefficients                      : BT.709

  31. Audio
  32. ID                                       : 2
  33. Format                                   : AC-3
  34. Format/Info                              : Audio Coding 3
  35. Commercial name                          : Dolby Digital
  36. Codec ID                                 : A_AC3
  37. Duration                                 : 1 h 36 min
  38. Bit rate mode                            : Constant
  39. Bit rate                                 : 384 kb/s
  40. Channel(s)                               : 6 channels
  41. Channel layout                           : L R C LFE Ls Rs
  42. Sampling rate                            : 48.0 kHz
  43. Frame rate                               : 31.250 FPS (1536 SPF)
  44. Bit depth                                : 16 bits
  45. Compression mode                         : Lossy
  46. Stream size                              : 266 MiB (7%)
  47. Title                                    : Once.Upon.a.Time.at.Christmas.2017.1080p.WEB-DL.DD5.1.H264-FGT
  48. Language                                 : English
  49. Service kind                             : Complete Main
  50. Default                                  : Yes
  51. Forced                                   : No

  52. Text
  53. ID                                       : 3
  54. Format                                   : UTF-8
  55. Codec ID                                 : S_TEXT/UTF8
  56. Codec ID/Info                            : UTF-8 Plain Text
  57. Language                                 : English
  58. Default                                  : Yes
  59. Forced                                   : No

  60. Menu
  61. 00:00:00.000                             : en:1
  62. 00:04:11.000                             : en:2
  63. 00:16:21.000                             : en:3
  64. 00:28:44.000                             : en:4
  65. 00:41:41.000                             : en:5
  66. 00:53:14.000                             : en:6
  67. 01:06:47.000                             : en:7
  68. 01:18:08.000                             : en:8
  69. 01:26:07.000                             : en:9
  70. 01:34:04.000                             : en:10
复制代码

圣诞节前12天 Once.Upon.a.Time.at.Christmas.2017.1080p.WEB-DL.DD5.1.H264-FGT 3.79GB-2.png 圣诞节前12天 Once.Upon.a.Time.at.Christmas.2017.1080p.WEB-DL.DD5.1.H264-FGT 3.79GB-3.png 圣诞节前12天 Once.Upon.a.Time.at.Christmas.2017.1080p.WEB-DL.DD5.1.H264-FGT 3.79GB-4.png 圣诞节前12天 Once.Upon.a.Time.at.Christmas.2017.1080p.WEB-DL.DD5.1.H264-FGT 3.79GB-5.png 圣诞节前12天 Once.Upon.a.Time.at.Christmas.2017.1080p.WEB-DL.DD5.1.H264-FGT 3.79GB-6.png 圣诞节前12天 Once.Upon.a.Time.at.Christmas.2017.1080p.WEB-DL.DD5.1.H264-FGT 3.79GB-7.png






回复

使用道具 举报

懒得打字嘛,点击右侧快捷回复 【右侧内容,后台自定义】
您需要登录后才可以回帖 登录 | 立即加入

本版积分规则

Archiver|小黑屋| 蓝光电影网 |网站地图

Copyright © 2021 Comsenz Inc. Powered by 蓝光电影网

蓝光电影网

本站内容由用户自主分享和转载自互联网,转载目的在于传递更多信息,并不代表本网赞同其观点和对其真实性负责。

如有侵权、违反国家法律政策行为,请联系我们,我们会第一时间及时清除和处理!

举报反馈邮箱:[email protected]

快速回复 返回顶部 返回列表