找回密码

蓝光电影网

查看: 115|回复: 0

[喜剧] 你口袋里有把枪吗? Is.That.a.Gun.in.Your.Pocket.2016.1080p.WEB-DL.DD5.1.H264-FGT 3.78GB

[复制链接]
蓝光币
382
发表于 2020-1-23 14:38:08 | 显示全部楼层 |阅读模式
你口袋里有把枪吗? Is.That.a.Gun.in.Your.Pocket.2016.1080p.WEB-DL.DD5.1.H264-FGT 3.78GB-1.png

译  名 你口袋里有把枪吗?
片  名 Is That a Gun in Your Pocket?
年  代 2016
产  地 美国
类  别 笑剧
语  言 英语
上映日期 2016-02-24(塞多纳电影节) / 2016-09-16(美国)
IMDb评分  5.6/10 from 1795 users
IMDb链接  https://www.imdb.com/title/tt4196832
豆瓣评分 5.5/10 from 537 users
豆瓣链接 https://movie.douban.com/subject/26849595/
片  长 95分钟
导  演 马特·库珀 Matt Cooper
编  剧 马特·库珀 Matt Cooper
主  演 安德利娅·安德斯 Andrea Anders
       马特·帕斯摩尔 Matt Passmore
       克劳斯·利特曼 Cloris Leachman
       凯瑟琳·麦克纳马拉 Katherine McNamara
       约翰·迈克尔·辛吉斯 John Michael Higgins
       霍拉提奥·桑斯 Horatio Sanz
       劳伦·鲍尔斯 Lauren Bowles
       约翰·赫德 John Heard
       克里斯汀·艾斯布鲁克 Christine Estabrook
       凯文·康韦 Kevin Conway
       大卫·丹曼 David Denman
       费尔南达·罗梅罗 Fernanda Romero
       马克斯·洛伊德-琼斯 Max Lloyd-Jones
       雷·奥克谢斯 Ray Auxias
       泰伦斯·比莎 Terrence Beasor


标  签 笑剧 | 美国 | 家庭 | 2016 | 搞笑 | 剧情 | 恋爱 | 社区

简  介  

  If there's one thing that the men of Rockford Texas love as much as their women, it's their guns. But when a gun incident at a neighborhood school spurs one stay at home mom, Jenna (Andrea Anders), to rethink Rockford's obsessive gun culture, life in this idyllic town is turned upside-down. Much to the chagrin of her husband, (Matt Passmore), Jenna ignites a movement by recruiting the women to withhold sex from the men until every gun in Rockford is vanquished. A wild and hilarious showdown ensues between the sexes. As tensions and libidos rise, the men and women of Rockford must decide what's really important: keeping the peace or getting a piece.
  1. Video
  2. ID                                       : 1
  3. Format                                   : AVC
  4. Format/Info                              : Advanced Video Codec
  5. Format profile                           : [email protected]
  6. Format settings                          : CABAC / 4 Ref Frames
  7. Format settings, CABAC                   : Yes
  8. Format settings, Reference frames        : 4 frames
  9. Codec ID                                 : V_MPEG4/ISO/AVC
  10. Duration                                 : 1 h 37 min
  11. Bit rate                                 : 5 072 kb/s
  12. Width                                    : 1 916 pixels
  13. Height                                   : 1 032 pixels
  14. Display aspect ratio                     : 1.85:1
  15. Frame rate mode                          : Constant
  16. Frame rate                               : 23.976 (24000/1001) FPS
  17. Color space                              : YUV
  18. Chroma subsampling                       : 4:2:0
  19. Bit depth                                : 8 bits
  20. Scan type                                : Progressive
  21. Bits/(Pixel*Frame)                       : 0.107
  22. Stream size                              : 3.45 GiB (91%)
  23. Title                                    : Is.That.a.Gun.in.Your.Pocket.2016.1080p.WEB-DL.DD5.1.H264-FGT
  24. Language                                 : English
  25. Default                                  : Yes
  26. Forced                                   : No
  27. Color range                              : Limited
  28. Color primaries                          : BT.709
  29. Transfer characteristics                 : BT.709
  30. Matrix coefficients                      : BT.709

  31. Audio
  32. ID                                       : 2
  33. Format                                   : AC-3
  34. Format/Info                              : Audio Coding 3
  35. Commercial name                          : Dolby Digital
  36. Codec ID                                 : A_AC3
  37. Duration                                 : 1 h 37 min
  38. Bit rate mode                            : Constant
  39. Bit rate                                 : 384 kb/s
  40. Channel(s)                               : 6 channels
  41. Channel layout                           : L R C LFE Ls Rs
  42. Sampling rate                            : 48.0 kHz
  43. Frame rate                               : 31.250 FPS (1536 SPF)
  44. Bit depth                                : 16 bits
  45. Compression mode                         : Lossy
  46. Stream size                              : 267 MiB (7%)
  47. Title                                    : Is.That.a.Gun.in.Your.Pocket.2016.1080p.WEB-DL.DD5.1.H264-FGT
  48. Language                                 : English
  49. Service kind                             : Complete Main
  50. Default                                  : Yes
  51. Forced                                   : No

  52. Text
  53. ID                                       : 3
  54. Format                                   : UTF-8
  55. Codec ID                                 : S_TEXT/UTF8
  56. Codec ID/Info                            : UTF-8 Plain Text
  57. Language                                 : English
  58. Default                                  : Yes
  59. Forced                                   : No

  60. Menu
  61. 00:00:00.000                             : en:Chapter 01
  62. 00:07:37.374                             : en:Chapter 02
  63. 00:14:43.425                             : en:Chapter 03
  64. 00:21:25.660                             : en:Chapter 04
  65. 00:29:29.018                             : en:Chapter 05
  66. 00:38:28.515                             : en:Chapter 06
  67. 00:45:59.591                             : en:Chapter 07
  68. 00:54:13.459                             : en:Chapter 08
  69. 01:02:37.796                             : en:Chapter 09
  70. 01:11:32.288                             : en:Chapter 10
  71. 01:21:36.100                             : en:Chapter 11
  72. 01:30:27.840                             : en:Chapter 12
复制代码

你口袋里有把枪吗? Is.That.a.Gun.in.Your.Pocket.2016.1080p.WEB-DL.DD5.1.H264-FGT 3.78GB-2.png 你口袋里有把枪吗? Is.That.a.Gun.in.Your.Pocket.2016.1080p.WEB-DL.DD5.1.H264-FGT 3.78GB-3.png 你口袋里有把枪吗? Is.That.a.Gun.in.Your.Pocket.2016.1080p.WEB-DL.DD5.1.H264-FGT 3.78GB-1.png 你口袋里有把枪吗? Is.That.a.Gun.in.Your.Pocket.2016.1080p.WEB-DL.DD5.1.H264-FGT 3.78GB-5.png 你口袋里有把枪吗? Is.That.a.Gun.in.Your.Pocket.2016.1080p.WEB-DL.DD5.1.H264-FGT 3.78GB-2.png 你口袋里有把枪吗? Is.That.a.Gun.in.Your.Pocket.2016.1080p.WEB-DL.DD5.1.H264-FGT 3.78GB-7.png






回复

使用道具 举报

懒得打字嘛,点击右侧快捷回复 【右侧内容,后台自定义】
您需要登录后才可以回帖 登录 | 立即加入

本版积分规则

Archiver|小黑屋| 蓝光电影网 |网站地图

Copyright © 2021 Comsenz Inc. Powered by 蓝光电影网

蓝光电影网

本站内容由用户自主分享和转载自互联网,转载目的在于传递更多信息,并不代表本网赞同其观点和对其真实性负责。

如有侵权、违反国家法律政策行为,请联系我们,我们会第一时间及时清除和处理!

举报反馈邮箱:[email protected]

快速回复 返回顶部 返回列表