找回密码

蓝光电影网

查看: 133|回复: 0

[喜剧] 直到我不愿意 I.Do.Until.I.Dont.2017.1080p.WEB-DL.DD5.1.H264-FGT 3.71GB

[复制链接]
蓝光币
382
发表于 2020-1-23 14:40:24 | 显示全部楼层 |阅读模式
直到我不愿意 I.Do.Until.I.Dont.2017.1080p.WEB-DL.DD5.1.H264-FGT 3.71GB-1.png

译  名 直到我不愿意
片  名 I Do... Until I Don't
年  代 2017
产  地 美国
类  别 笑剧
语  言 英语
上映日期 2017-09-01(美国)
IMDb评分  4.6/10 from 1197 users
IMDb链接  https://www.imdb.com/title/tt3234084
豆瓣评分 0/10 from 0 users
豆瓣链接 https://movie.douban.com/subject/26964509/
片  长 103分钟
导  演 蕾克·贝尔 Lake Bell
编  剧 蕾克·贝尔 Lake Bell
主  演 蕾克·贝尔 Lake Bell
       艾德·赫尔姆斯 Ed Helms
       玛丽·斯汀伯根 Mary Steenburgen
       保罗·雷瑟 Paul Reiser
       艾梅柏·希尔德 Amber Heard
       Wyatt Cenac


标  签 美国 | 笑剧 | 2017 | Amber_Heard | 蕾克·贝尔 | Lake_Bell | 美国电影 | 电影

简  介  

  An ensemble comedy about the meaning of [email protected]
  1. Video
  2. ID                                       : 1
  3. Format                                   : AVC
  4. Format/Info                              : Advanced Video Codec
  5. Format profile                           : [email protected]
  6. Format settings                          : CABAC / 5 Ref Frames
  7. Format settings, CABAC                   : Yes
  8. Format settings, Reference frames        : 5 frames
  9. Codec ID                                 : V_MPEG4/ISO/AVC
  10. Duration                                 : 1 h 47 min
  11. Bit rate                                 : 4 474 kb/s
  12. Width                                    : 1 916 pixels
  13. Height                                   : 796 pixels
  14. Display aspect ratio                     : 2.40:1
  15. Frame rate mode                          : Constant
  16. Frame rate                               : 23.976 (24000/1001) FPS
  17. Color space                              : YUV
  18. Chroma subsampling                       : 4:2:0
  19. Bit depth                                : 8 bits
  20. Scan type                                : Progressive
  21. Bits/(Pixel*Frame)                       : 0.122
  22. Stream size                              : 3.35 GiB (90%)
  23. Title                                    : I.Do.Until.I.Dont.2017.1080p.WEB-DL.DD5.1.H264-FGT
  24. Language                                 : English
  25. Default                                  : Yes
  26. Forced                                   : No
  27. Color range                              : Limited
  28. Color primaries                          : BT.709
  29. Transfer characteristics                 : BT.709
  30. Matrix coefficients                      : BT.709

  31. Audio
  32. ID                                       : 2
  33. Format                                   : AC-3
  34. Format/Info                              : Audio Coding 3
  35. Commercial name                          : Dolby Digital
  36. Codec ID                                 : A_AC3
  37. Duration                                 : 1 h 47 min
  38. Bit rate mode                            : Constant
  39. Bit rate                                 : 384 kb/s
  40. Channel(s)                               : 6 channels
  41. Channel layout                           : L R C LFE Ls Rs
  42. Sampling rate                            : 48.0 kHz
  43. Frame rate                               : 31.250 FPS (1536 SPF)
  44. Bit depth                                : 16 bits
  45. Compression mode                         : Lossy
  46. Stream size                              : 294 MiB (8%)
  47. Title                                    : I.Do.Until.I.Dont.2017.1080p.WEB-DL.DD5.1.H264-FGT
  48. Language                                 : English
  49. Service kind                             : Complete Main
  50. Default                                  : Yes
  51. Forced                                   : No

  52. Text
  53. ID                                       : 3
  54. Format                                   : UTF-8
  55. Codec ID                                 : S_TEXT/UTF8
  56. Codec ID/Info                            : UTF-8 Plain Text
  57. Language                                 : English
  58. Default                                  : Yes
  59. Forced                                   : No

  60. Menu
  61. 00:00:00.000                             : en:1
  62. 00:04:32.772                             : en:2
  63. 00:10:37.428                             : en:3
  64. 00:17:39.725                             : en:4
  65. 00:25:36.159                             : en:5
  66. 00:31:42.358                             : en:6
  67. 00:39:06.719                             : en:7
  68. 00:45:48.245                             : en:8
  69. 00:55:25.030                             : en:9
  70. 01:09:11.773                             : en:10
  71. 01:16:20.952                             : en:11
  72. 01:21:56.412                             : en:12
  73. 01:28:56.790                             : en:13
  74. 01:32:53.026                             : en:14
  75. 01:37:31.262                             : en:15
  76. 01:40:56.216                             : en:16
复制代码

直到我不愿意 I.Do.Until.I.Dont.2017.1080p.WEB-DL.DD5.1.H264-FGT 3.71GB-2.png 直到我不愿意 I.Do.Until.I.Dont.2017.1080p.WEB-DL.DD5.1.H264-FGT 3.71GB-3.png 直到我不愿意 I.Do.Until.I.Dont.2017.1080p.WEB-DL.DD5.1.H264-FGT 3.71GB-4.png 直到我不愿意 I.Do.Until.I.Dont.2017.1080p.WEB-DL.DD5.1.H264-FGT 3.71GB-5.png 直到我不愿意 I.Do.Until.I.Dont.2017.1080p.WEB-DL.DD5.1.H264-FGT 3.71GB-6.png 直到我不愿意 I.Do.Until.I.Dont.2017.1080p.WEB-DL.DD5.1.H264-FGT 3.71GB-7.png






回复

使用道具 举报

懒得打字嘛,点击右侧快捷回复 【右侧内容,后台自定义】
您需要登录后才可以回帖 登录 | 立即加入

本版积分规则

Archiver|小黑屋| 蓝光电影网 |网站地图

Copyright © 2021 Comsenz Inc. Powered by 蓝光电影网

蓝光电影网

本站内容由用户自主分享和转载自互联网,转载目的在于传递更多信息,并不代表本网赞同其观点和对其真实性负责。

如有侵权、违反国家法律政策行为,请联系我们,我们会第一时间及时清除和处理!

举报反馈邮箱:[email protected]

快速回复 返回顶部 返回列表